[ Сегодня идет свободное скачивание без начисления Download ]


Статистика раздачи
Нет
 
   
 
Top  
 
 
-Любовь на кончиках пальцев / Populaire (2012) HDRip- Русское название: Любовь на кончиках пальцев
Оригинальное название: Populaire
Год выпуска: 2012
Производство: Франция / Les Productions du Tresor, Compagnie Cinematographique Europeenne, La, France 3 Cinema
Жанр: Мелодрама, Комедия
Перевод: Многоголосый закадровый, профессиональный [Лицензия]
Субтитры: Отсутствуют-Дата мировой премьеры: 17 ноября 2012
Дата российской премьеры: 31 января 2013, «Премиум Фильм»
Дата выхода DVD релиза: 7 марта 2013, «CP Дистрибуция»-Режиссер: Режис Ройнсар
Продюсер: Ален Аттал, Ксавьер Амблар, Гаетан Дэвид
Актеры: Ромен Дюрис, Дебора Франсуа, Беренис Бежо, Шон Бенсон, Мелани Бернье, Николя Бедо, Миу-Миу, Эдди Митчелл, Фредерик Пьеро, Федор Аткин...-Описание фильма:
Роза живет в провинции со своим отцом, обручена с самым выгодным женихом их городка, и казалось бы, ей предначертана тихая спокойная жизнь домохозяйки. Однако все меняется, когда она встречает красавца Луиса: вместе им предстоит покорить весь мир.- -Продолжительность: 01:50:58
Качество видео: HDRip
Видеокодек: Xvid
Битрейт видео: ~1902 Кбит/сек
Размер кадра: 720x304
Aудио #1: AC3, 5.1 ch, 448 Кбит/сек, 48 kHz (русский многоголосый)
Aудио #2: AC3, 5.1 ch, 448 Кбит/сек, 48 kHz (французский - оригинал)

MediaInfo

General
Complete name                  : Populaire.2012.P.HDRip.2,18.GB.NNM-CLUB.RU.avi
Format                         : AVI
Format/Info                    : Audio Video Interleave
Format profile                 : OpenDML
File size                      : 2.18 GiB
Duration                       : 1h 50mn
Overall bit rate               : 2 816 Kbps
Writing application            : VirtualDubMod 1.5.10.2 (build 2540/release)
Writing library                : VirtualDubMod build 2540/release
Video
ID                             : 0
Format                         : MPEG-4 Visual
Format profile                 : Advanced [email protected]
Format settings, BVOP          : 1
Format settings, QPel          : No
Format settings, GMC           : No warppoints
Format settings, Matrix        : Custom
Codec ID                       : XVID
Codec ID/Hint                  : XviD
Duration                       : 1h 50mn
Bit rate                       : 1 902 Kbps
Width                          : 720 pixels
Height                         : 304 pixels
Display aspect ratio           : 2.35:1
Frame rate                     : 24.000 fps
Color space                    : YUV
Chroma subsampling             : 4:2:0
Bit depth                      : 8 bits
Scan type                      : Progressive
Compression mode               : Lossy
Bits/(Pixel*Frame)             : 0.362
Stream size                    : 1.47 GiB (68%)
Writing library                : XviD 1.2.1 (UTC 2008-12-04)
Audio #1
ID                             : 1
Format                         : AC-3
Format/Info                    : Audio Coding 3
Mode extension                 : CM (complete main)
Format settings, Endianness    : Big
Codec ID                       : 2000
Duration                       : 1h 50mn
Bit rate mode                  : Constant
Bit rate                       : 448 Kbps
Channel(s)                     : 6 channels
Channel positions              : Front: L C R, Side: L R, LFE
Sampling rate                  : 48.0 KHz
Bit depth                      : 16 bits
Compression mode               : Lossy
Stream size                    : 356 MiB (16%)
Alignment                      : Split accross interleaves
Interleave, duration           : 42 ms (1.00 video frame)
Interleave, preload duration   : 500 ms
Audio #2
ID                             : 2
Format                         : AC-3
Format/Info                    : Audio Coding 3
Mode extension                 : CM (complete main)
Format settings, Endianness    : Big
Codec ID                       : 2000
Duration                       : 1h 50mn
Bit rate mode                  : Constant
Bit rate                       : 448 Kbps
Channel(s)                     : 6 channels
Channel positions              : Front: L C R, Side: L R, LFE
Sampling rate                  : 48.0 KHz
Bit depth                      : 16 bits
Compression mode               : Lossy
Stream size                    : 356 MiB (16%)
Alignment                      : Split accross interleaves
Interleave, duration           : 42 ms (1.00 video frame)
Interleave, preload duration   : 500 ms
-Скриншоты:

-Время раздачи: 24/7 по возможности

[Цитировать]

Топик был перенесен из форума Новинки кинопроката в форум Мелодрама
Henkok



Показать сообщения:    

Текущее время: 04-Дек 11:12

Часовой пояс: UTC + 3


Вы не можете начинать темы
Вы не можете отвечать на сообщения
Вы не можете редактировать свои сообщения
Вы не можете удалять свои сообщения
Вы не можете голосовать в опросах
Вы не можете прикреплять файлы к сообщениям
Вы не можете скачивать файлы

!ВНИМАНИЕ!
Сайт не предоставляет электронные версии произведений, а занимается лишь коллекционированием и каталогизацией ссылок, присылаемых и публикуемых на форуме нашими читателями. Если вы являетесь правообладателем какого-либо представленного материала и не желаете, чтобы ссылка на него находилась в нашем каталоге, свяжитесь с нами, и мы незамедлительно удалим ее. Файлы для обмена на трекере предоставлены пользователями сайта, и администрация не несет ответственности за их содержание. Просьба не заливать файлы, защищенные авторскими правами, а также файлы нелегального содержания!