[ Сегодня идет свободное скачивание без начисления Download ]


Статистика раздачи
Нет
 
   
 
Top  
 
 
-Мрачные небеса / Dark Skies (2013) DVDRip- Русское название: Мрачные небеса
Оригинальное название: Dark Skies
Год выпуска: 2013
Производство: США / Alliance Films, Blumhouse Productions
Жанр: Ужасы, Фантастика, Триллер
Перевод: Дублированный [Лицензия]
Субтитры: Нет.
Дата мировой премьеры: 21 февраля 2013
Дата российской премьеры: 21 февраля 2013, «Top Film Distribution»
Дата выхода DVD релиза: 26 марта 2013, «Lizard Cinema Trade»
Режиссер: Скотт Чарльз Стюарт
Актеры: Кери Рассел, Джош Хэмилтон, Дакота Гойо, Кадан Рокетт, Дж.К. Симмонс, Л.Дж. Бенет, Рич Хатчмэн, Минди Крист, Энни Турман, Джейк Уошберн
Описание фильма:
После того как серия тревожных событий врывается в мирную жизнь семьи Барреттов, они пытаются узнать, что за страшные неведомые силы стоят за всем этим.

Продолжительность: 01:33:02
Качество видео: DVDRip
Видеокодек: Xvid
Формат: AVI
Видео: 720x304 (2.35:1), 25.000 fps, ~ 982 kbps avg, 0.179 bit/pixel
Аудио: 48 kHz, MP3 2 ch, 128 kbps, Русский-

Рецензия:

Смесь триллера и мистики, переходящая в ужасы. И это триллер в полном смысле этого слова — фильм захватывающий, буквально намагничивающий атмосферу в зрительном зале.
Скотт Чарльз Стюарт, снявший «Легион» и «Пастыря», на мой взгляд, довольно неплохо, радует новой премьерой в духе «Астрала» и «Паранормальных явлений». Режиссер многому научился у режиссеров Джеймса Вана, создателя культовой «Пилы», и Орена Пели, сумевшего на своем «Явлении» заработать неплохие деньги.
Стюарт же не захотел брать за основу уже ставшее мейнстримом потустороннее, а, вспомнив старые добрые «Секретные материалы», взялся за тему инопланетного в нашей жизни. На тему внеземного разума снято довольно много широко известных картин, например, «Четвертый вид», «Знаки» и те же «Секретные материалы» (кстати, мне актер, сыгравший отца, напомнил агента Малдера). Но настолько жуткий фильм я вижу впервые. Сцены появления пресловутых зеленых, точнее серых, человечков пробирают до дрожи. Умело нарисованными при помощи компьютерной графики монстрами или превосходно загримированными чудовищами уже никого не удивишь. Настолько по-хорошему страшных фильмов я не видела, наверное, после «Астрала». Желаемый эффект напряжение достигается за счет главнейшего приема в фильмах подобного жанра — звукового сопровождения.
Браво человеку, отвечающему за кастинг. Все актеры довольно миловидные, очень подходящие под типаж своих персонажей: Джош Хэмилтон («Идентификация Борна»), сыгравший главу семейства, Кэрри Рассел («Миссия невыполнима 3») в роли Лейси и старший сын — Дакота Гайо, тронувший сердца зрителей ещё в «Живой стали». У актеров не так много ролей в громких фильмах, но, думаю, «Мрачные небеса» станет неплохой ступенькой для требования в дальнейшем более высоких гонораров и ролей первого плана. Надо признать, после двух предыдущих фильмов Стюарту большие бюджеты на проекты не выделяют.
В доме риэлтора Лейси Баррет и её мужа, безработного Дэниела, начинают происходить странные вещи, связанные с их детьми, подростком Джесси и младшим сыном Сэмом. Сначала появляются странные конструкции из кухонных предметов, пропадают фотографии, затем уже и поведение Сэма начинает вызывать серьезные опасения. Члены семьи потихоньку сходят с ума, а ситуация осложняется тем, что Дэниел чувствует вину за то, что в семье напряг с деньгами, и он никак не может найти работу. Ему, как любому мужчине, очень важно чувствовать свою независимость и быть первенствующим. Но очередное собеседование заканчивается провалом, и кажется, что хуже уже быть не может. Тем временем с Лейси во время показа дома клиентам случается приступ, вызванный инопланетной активностью, после чего она получает принудительный отпуск. И тут впору действительно отчаяться, но муж и жена сосредотачиваются на том, чтобы защитить своих детей от беспощадных инопланетных экспериментаторов, каждую ночь навещающих их дом. Саму супружескую чету пришельцы тоже не обходят стороной, например, вживляют Дэниелу под кожу имплантат, с виду выглядящий как аллергия. Но он упорно не хочет верить жене, что во всем виноваты загадочные существа из космоса. В тот момент, когда все доказательства уже на лицо, Лейси с мужем решают обратиться к уфологу-коллекционеру, который подтверждает все их опасения и более того, заверяет пару в их полной нормальности: «Поверьте, вы далеко не единственные». После этого визита Дэниел и Лейси решают до последнего защищать самое дорогое, что у них есть — друг друга.
Несмотря на скудный пресс-релиз в сети, фильм оказался вполне смотрибельным и превзошел мои ожидания.

MediaInfo:

General
Complete name : C:\Мрачные небеса Dark Skies (2013).avi
Format : AVI
Format/Info : Audio Video Interleave
File size : 745 MiB
Duration : 1h 33mn
Overall bit rate : 1 119 Kbps
Writing application : (build 2550/release)
Writing library : VirtualDubMod build 2550/release
Video
ID : 0
Format : MPEG-4 Visual
Format profile : Advanced [email protected]
Format settings, BVOP : 1
Format settings, QPel : No
Format settings, GMC : No warppoints
Format settings, Matrix : Custom
Codec ID : XVID
Codec ID/Hint : XviD
Duration : 1h 33mn
Bit rate : 982 Kbps
Width : 720 pixels
Height : 304 pixels
Display aspect ratio : 2.35:1
Frame rate : 25.000 fps
Color space : YUV
Chroma subsampling : 4:2:0
Bit depth : 8 bits
Scan type : Progressive
Compression mode : Lossy
Bits/(Pixel*Frame) : 0.179
Stream size : 653 MiB (88%)
Writing library : XviD 65
Audio
ID : 1
Format : MPEG Audio
Format version : Version 1
Format profile : Layer 3
Codec ID : 55
Codec ID/Hint : MP3
Duration : 1h 33mn
Bit rate mode : Constant
Bit rate : 128 Kbps
Channel(s) : 2 channels
Sampling rate : 48.0 KHz
Compression mode : Lossy
Stream size : 85.2 MiB (11%)
Alignment : Aligned on interleaves
Interleave, duration : 40 ms (1.00 video frame)
Interleave, preload duration : 504 ms
Writing library : L3.99r
Encoding settings : -m s -V 4 -q 2 -lowpass 17 -b 128
Скриншоты:
Время раздачи: 24/7 (до 10 скачавших)

[Цитировать]

Топик был перенесен из форума Новинки кинопроката в форум Ужасы


JOKER



Показать сообщения:    

Текущее время: 04-Дек 05:00

Часовой пояс: UTC + 3


Вы не можете начинать темы
Вы не можете отвечать на сообщения
Вы не можете редактировать свои сообщения
Вы не можете удалять свои сообщения
Вы не можете голосовать в опросах
Вы не можете прикреплять файлы к сообщениям
Вы не можете скачивать файлы

!ВНИМАНИЕ!
Сайт не предоставляет электронные версии произведений, а занимается лишь коллекционированием и каталогизацией ссылок, присылаемых и публикуемых на форуме нашими читателями. Если вы являетесь правообладателем какого-либо представленного материала и не желаете, чтобы ссылка на него находилась в нашем каталоге, свяжитесь с нами, и мы незамедлительно удалим ее. Файлы для обмена на трекере предоставлены пользователями сайта, и администрация не несет ответственности за их содержание. Просьба не заливать файлы, защищенные авторскими правами, а также файлы нелегального содержания!