[ Сегодня идет свободное скачивание без начисления Download ]


Статистика раздачи
Нет
 
   
 
Top  
 
 
- Бойцы / Brawler (2011) WEB-DLRip
- «Брат мой - враг мой»
- Год выпуска: 2011
Страна: США
Производство: GFY Films
Жанр: драма-Режиссер: Крис Сивертсон
Актеры: Натан Граббс, Марк Сентер, Брайан Бэтт, Майкл Боуэн, Пелл Джеймс, Лэнс Э. Николс, Меган Хеннинг, Лаура Кайот, Джейкоб Бьянкини, Кенни Бордес-Перевод: Многоголосый закадровый
Субтитры: нет.-Описание: Два брата вступили в бойцовский клуб Нового Орлеана. Между ними девушка, которая никак не может определиться, кого же из них она любит, и жажда победы, во что бы то ни стало. Братья готовы биться насмерть, даже друг с другом.
- -Рейтинг MPAA: Рейтинг R - Детям до 17 лет обязательно присутствие родителей
-Продолжительность: 01:24:00
Качество: WEB-DLRip
Формат: AVI
Видео кодек: XVID
Аудио кодек: MP3
Видео: 656x272 (2.40:1), 23.976 fps, XviD build 50 ~1101 kbps avg, 0.257 bit/pixel
Аудио: 48 kHz, MPEG Layer 3, 2 ch, ~128 kbps avg-Премьера (мир): ..................................3 августа 2011
Премьера (РФ): ....................................28 марта 2013, «Кинопром»
-

MediaInfo

Format : AVI
Format/Info : Audio Video Interleave
File size : 744 MiB
Duration : 1h 24mn
Overall bit rate : 1 238 Kbps
Writing application : VirtualDubMod 1.5.10.3 | www.virtualdub-fr.org || (build 2550/release)
Writing library : VirtualDubMod build 2550/release
Video
ID : 0
Format : MPEG-4 Visual
Format profile : Advanced Simple@L5
Format settings, BVOP : 1
Format settings, QPel : No
Format settings, GMC : No warppoints
Format settings, Matrix : Default (MPEG)
Codec ID : XVID
Codec ID/Hint : XviD
Duration : 1h 24mn
Bit rate : 1 101 Kbps
Width : 656 pixels
Height : 272 pixels
Display aspect ratio : 2.40:1
Frame rate : 23.976 fps
Color space : YUV
Chroma subsampling : 4:2:0
Bit depth : 8 bits
Scan type : Progressive
Compression mode : Lossy
Bits/(Pixel*Frame) : 0.257
Stream size : 661 MiB (89%)
Writing library : XviD 1.2.1 (UTC 2008-12-04)
Audio
ID : 1
Format : MPEG Audio
Format version : Version 1
Format profile : Layer 3
Codec ID : 55
Codec ID/Hint : MP3
Duration : 1h 24mn
Bit rate mode : Constant
Bit rate : 128 Kbps
Channel(s) : 2 channels
Sampling rate : 48.0 KHz
Compression mode : Lossy
Stream size : 76.9 MiB (10%)
Alignment : Aligned on interleaves
Interleave, duration : 42 ms (1.00 video frame)
Interleave, preload duration : 504 ms
Writing library : LAME3.98r
Encoding settings : -m s -V 4 -q 2 -lowpass 17 -b 128
-Скриншоты:

-Время раздачи: 24/7 - круглосуточно (до первых сидов - потом по возможности)-

[Цитировать]



Показать сообщения:    

Текущее время: 09-Дек 14:42

Часовой пояс: UTC + 3


Вы не можете начинать темы
Вы не можете отвечать на сообщения
Вы не можете редактировать свои сообщения
Вы не можете удалять свои сообщения
Вы не можете голосовать в опросах
Вы не можете прикреплять файлы к сообщениям
Вы не можете скачивать файлы

!ВНИМАНИЕ!
Сайт не предоставляет электронные версии произведений, а занимается лишь коллекционированием и каталогизацией ссылок, присылаемых и публикуемых на форуме нашими читателями. Если вы являетесь правообладателем какого-либо представленного материала и не желаете, чтобы ссылка на него находилась в нашем каталоге, свяжитесь с нами, и мы незамедлительно удалим ее. Файлы для обмена на трекере предоставлены пользователями сайта, и администрация не несет ответственности за их содержание. Просьба не заливать файлы, защищенные авторскими правами, а также файлы нелегального содержания!