[ Сегодня идет свободное скачивание без начисления Download ]


Статистика раздачи
Нет
 
   
 
Top  
 
 
--[sh]Под солнцем Тосканы / Under the Tuscan Sun[/sh]
-- Страна: США, Италия
Жанр: мелодрама
Год выпуска: 2003
Продолжительность: 01:52:41-Перевод 1: Профессиональный (двухголосый закадровый) R5
Перевод 2: Профессиональный (двухголосый закадровый) DDV2
Перевод 3: Авторский (одноголосый, закадровый) Визгунов
Cубтитры: английские, русские
Оригинальная аудиодорожка: английский-Режиссер: Одри Уэллс / Audrey Wells
В ролях: Дайан Лэйн, Сандра О, Линдсэй Дункан, Рауль Бова, Винсент Риотта, Марио Моничелли, Роберто Нобиле, Анита Дзагария, Эвелина Гори-Описание: Тяжело переживая развод с мужем, писательница Фрэнсис Мэйс медленно погружается в пучину депрессии. Душевный кризис перетекает в творческий. Опустошенная и разбитая, Фрэнсис все же поддается на уговоры подруги и едет развеяться в Италию. Происходит настоящее чудо!
Ласковое южное солнце пробуждает в очарованной красотой Тосканы Фрэнсис страстное желание начать новую жизнь — именно здесь, в этом теплом и дружелюбном краю. Первым делом она покупает себе старинную виллу. Вторым — заводит новые знакомства. И она еще не ведает, что третье вскоре найдет ее само. И это будет новая, всепоглощающая любовь…
- -Тип релиза: BDRemux 1080p
Контейнер: MKV
Видео: MPEG-4 AVC Video / 36027 kbps / 1080p / 23.976 fps / 16:9 / High Profile 4.1
Аудио 1: Русский AC3; 2 ch; 48 kHz; CBR; 192 Kbps |DVO|
Аудио 2: Русский AC3; 5.1 ch; 48 kHz; CBR; 448 Kbps |DVO DDV2|
Аудио 3: Русский DTS-HD Master Audio / 5.1 / 48 kHz / 4211 kbps / 24-bit (DTS Core: 5.1 / 48 kHz / 1509 kbps / 24-bit) |Визгунов|
Аудио 4: Английский DTS-HD Master Audio / 5.1 / 48 kHz / 4201 kbps / 24-bit (DTS Core: 5.1 / 48 kHz / 1509 kbps / 24-bit)-Сэмпл: Under.The.Tuscan.Sun.2003.BDRemux.1080p-sample.mkv
-

MediaInfo

General
Unique ID : 238310600484475577297309051970225788651 (0xB348F3C059E45C9FA4F7069B7B1556EB)
Complete name : Under.The.Tuscan.Sun.2003.BDRemux.1080p-Grim.mkv
Format : Matroska
Format version : Version 2
File size : 35.3 GiB
Duration : 1h 52mn
Overall bit rate mode : Variable
Overall bit rate : 44.9 Mbps
Encoded date : UTC 2012-10-20 18:01:48
Writing application : mkvmerge v5.2.1 ('A Far Off Place') built on Jan 2 2012 23:21:10
Writing library : libebml v1.2.3 + libmatroska v1.3.0
Video
ID : 1
Format : AVC
Format/Info : Advanced Video Codec
Format profile : [email protected]
Format settings, CABAC : Yes
Format settings, ReFrames : 4 frames
Muxing mode : Container [email protected]
Codec ID : V_MPEG4/ISO/AVC
Duration : 1h 52mn
Bit rate mode : Variable
Bit rate : 38.4 Mbps
Maximum bit rate : 38.0 Mbps
Width : 1 920 pixels
Height : 1 080 pixels
Display aspect ratio : 16:9
Frame rate : 23.976 fps
Color space : YUV
Chroma subsampling : 4:2:0
Bit depth : 8 bits
Scan type : Progressive
Bits/(Pixel*Frame) : 0.772
Stream size : 30.2 GiB (86%)
Language : English
Default : Yes
Forced : No
Audio #1
ID : 2
Format : AC-3
Format/Info : Audio Coding 3
Mode extension : CM (complete main)
Codec ID : A_AC3
Duration : 1h 52mn
Bit rate mode : Constant
Bit rate : 192 Kbps
Channel(s) : 2 channels
Channel positions : Front: L R
Sampling rate : 48.0 KHz
Bit depth : 16 bits
Compression mode : Lossy
Stream size : 155 MiB (0%)
Title : DVO
Language : Russian
Default : Yes
Forced : No
Audio #2
ID : 3
Format : AC-3
Format/Info : Audio Coding 3
Mode extension : CM (complete main)
Codec ID : A_AC3
Duration : 1h 52mn
Bit rate mode : Constant
Bit rate : 448 Kbps
Channel(s) : 6 channels
Channel positions : Front: L C R, Side: L R, LFE
Sampling rate : 48.0 KHz
Bit depth : 16 bits
Compression mode : Lossy
Stream size : 361 MiB (1%)
Title : DVO
Language : Russian
Default : No
Forced : No
Audio #3
ID : 4
Format : DTS
Format/Info : Digital Theater Systems
Format profile : MA / Core
Codec ID : A_DTS
Duration : 1h 52mn
Bit rate mode : Variable
Bit rate : 2 509 Kbps / 1 510 Kbps
Channel(s) : 6 channels
Channel positions : Front: L C R, Side: L R, LFE
Sampling rate : 48.0 KHz
Bit depth : 24 bits
Compression mode : Lossless / Lossy
Title : Визгунов
Language : Russian
Default : No
Forced : No
Audio #4
ID : 5
Format : DTS
Format/Info : Digital Theater Systems
Format profile : MA / Core
Codec ID : A_DTS
Duration : 1h 52mn
Bit rate mode : Variable
Bit rate : 2 455 Kbps / 1 510 Kbps
Channel(s) : 6 channels
Channel positions : Front: L C R, Side: L R, LFE
Sampling rate : 48.0 KHz
Bit depth : 24 bits
Compression mode : Lossless / Lossy
Title : Original
Language : English
Default : No
Forced : No
Text #1
ID : 6
Format : UTF-8
Codec ID : S_TEXT/UTF8
Codec ID/Info : UTF-8 Plain Text
Language : Russian
Default : No
Forced : No
Text #2
ID : 7
Format : UTF-8
Codec ID : S_TEXT/UTF8
Codec ID/Info : UTF-8 Plain Text
Language : English
Default : No
Forced : No
Menu
00:00:00.000 : en:1. Opening Credits/Book Signing
00:03:12.859 : en:2. Moving Out
00:08:36.683 : en:3. Freedom
00:18:14.885 : en:4. Buyer's Remorse
00:30:47.721 : en:5. Fixing Up the Villa
00:38:29.724 : en:6. Making Friends
00:50:14.178 : en:7. Cooking Italia
00:55:28.450 : en:8. Getting Out
01:08:48.333 : en:9. Missed Visit
01:19:39.525 : en:10. A Baby Is Born
01:23:32.841 : en:10. A Baby Is Born
01:35:13.166 : en:12. Young Love
01:39:15.533 : en:13. The Wedding
01:42:46.702 : en:14. New Beginning/End Credits

Скриншоты

[Цитировать]



Показать сообщения:    

Текущее время: 04-Дек 21:26

Часовой пояс: UTC + 3


Вы не можете начинать темы
Вы не можете отвечать на сообщения
Вы не можете редактировать свои сообщения
Вы не можете удалять свои сообщения
Вы не можете голосовать в опросах
Вы не можете прикреплять файлы к сообщениям
Вы не можете скачивать файлы

!ВНИМАНИЕ!
Сайт не предоставляет электронные версии произведений, а занимается лишь коллекционированием и каталогизацией ссылок, присылаемых и публикуемых на форуме нашими читателями. Если вы являетесь правообладателем какого-либо представленного материала и не желаете, чтобы ссылка на него находилась в нашем каталоге, свяжитесь с нами, и мы незамедлительно удалим ее. Файлы для обмена на трекере предоставлены пользователями сайта, и администрация не несет ответственности за их содержание. Просьба не заливать файлы, защищенные авторскими правами, а также файлы нелегального содержания!