[ Сегодня идет свободное скачивание без начисления Download ]


Статистика раздачи
Нет
 
   
 
Top  
 
 
Темные силы / The Dark
«One of the living for one of the dead.»
- Год выпуска: 2005
Страна: Остров Мэн, Великобритания, Германия
Жанр: Ужасы, триллер, детектив-Продолжительность: 1:29:25
Перевод №1: Профессиональный (полное дублирование)
Перевод №2: Профессиональный (многоголосый закадровый) {отдельно}
Оригинальная аудиодорожка: Английская
Cубтитры: Русские, Английские (*.srt)-Режиссер: Джон Фоусет / John Fawcett
В ролях: Мария Белло, Шон Бин, Морис Роевз, Софи Стаки, Эбигейл Стоун, Ричард Элфин, Каспер Харви, Элунд Джонс, Гвенит Петти, Робин Гриффит и др.-Описание: В попытке сплотить семью, жительница Нью-Йорка Адель возвращается с маленькой дочерью Сарой в Уэльс к мужу. Но уединенный дом на утесе, как выяснилось, имеет кровавое прошлое, подчиненное темным силам, которые властвуют до сих пор…-Бюджет: ?3 000 000
Сборы в Мире: $6 567 422 | Сборы в России: $467 000
Рейтинг MPAA: R (Лицам до 17 лет обязательно присутствие взрослого!)
-Качество видео: DVDRip-AVC
Формат видео: MKV
Видео: 720x432@768x432 (16:9), 25 fps, x264 ~2499 kbps avg, 0.321 bit/pixel
Аудио#1: 48 kHz, AC3, 3/2 (L,C,R,l,r) + LFE ch, ~384 kbps [Dub]
Аудио#2: 48 kHz, AC3, 3/2 (L,C,R,l,r) + LFE ch, ~384 kbps [Original Eng]
Аудио#3: 48 kHz, AC3, 3/2 (L,C,R,l,r) + LFE ch, ~384 kbps [MVO] {отдельно}
Размер: 2.05 GB (? DVD) - без отдельной звуковой дороги!

Интересные факты

  • Фильм снят по рассказу Саймона Магинны «Овцы». В романе у молодых супругов был сын, в фильме решено было заменить его дочерью.

MediaInfo

[color=black]General
Unique ID                                : 229279066559764250069872840905472968077 (0xAC7D8ABFE9BC322EAD9A579AEE59858D)
Complete name                            : C:\Users\Downloads\Encode\TEMNIE_SILI\Temnie_sili.2005.DVDRip-AVC.mkv
Format                                   : Matroska
Format version                           : Version 2
File size                                : 2.05 GiB
Duration                                 : 1h 29mn
Overall bit rate                         : 3 267 Kbps
Movie name                               : The Dark (2005) - DVDRip by Juvelir
Encoded date                             : UTC 2013-03-15 13:04:39
Writing application                      : mkvmerge v5.6.0 ('Kenya Kane') built on Jun 29 2012 15:01:44
Writing library                          : libebml v1.2.3 + libmatroska v1.3.0
Video
ID                                       : 1
Format                                   : AVC
Format/Info                              : Advanced Video Codec
Format profile                           : High@L3.1
Format settings, CABAC                   : Yes
Format settings, ReFrames                : 12 frames
Codec ID                                 : V_MPEG4/ISO/AVC
Duration                                 : 1h 29mn
Bit rate                                 : 2 499 Kbps
Width                                    : 720 pixels
Height                                   : 432 pixels
Display aspect ratio                     : 16:9
Frame rate                               : 25.000 fps
Color space                              : YUV
Chroma subsampling                       : 4:2:0
Bit depth                                : 8 bits
Scan type                                : Progressive
Bits/(Pixel*Frame)                       : 0.321
Stream size                              : 1.52 GiB (74%)
Writing library                          : x264 core 125 r2200kMod 999b753
Encoding settings                        : cabac=1 / ref=12 / deblock=1:-1:-1 / analyse=0x3:0x133 / me=umh / subme=11 / psy=1 / fade_compensate=0.00 / psy_rd=1.00:0.05 / mixed_ref=1 / me_range=32 / chroma_me=1 / trellis=2 / 8x8dct=1 / cqm=0 / deadzone=21,11 / fast_pskip=0 / chroma_qp_offset=-3 / threads=6 / lookahead_threads=1 / sliced_threads=0 / nr=0 / decimate=0 / interlaced=0 / bluray_compat=0 / constrained_intra=0 / bframes=13 / b_pyramid=2 / b_adapt=2 / b_bias=0 / direct=3 / weightb=1 / open_gop=0 / weightp=2 / keyint=250 / keyint_min=25 / scenecut=40 / intra_refresh=0 / rc_lookahead=60 / rc=2pass / mbtree=0 / bitrate=2499 / ratetol=1.0 / qcomp=0.60 / qpmin=10 / qpmax=51 / qpstep=4 / cplxblur=20.0 / qblur=0.5 / vbv_maxrate=14000 / vbv_bufsize=14000 / nal_hrd=none / ip_ratio=1.40 / pb_ratio=1.30 / aq=3:1.00
Default                                  : Yes
Forced                                   : Yes
Color primaries                          : BT.470-6 System B, BT.470-6 System G, BT.601-6 625, BT.1358 625, BT.1700 625 PAL, BT.1700 625 SECAM
Transfer characteristics                 : BT.470-6 System B, BT.470-6 System G
Matrix coefficients                      : BT.470-6 System B, BT.470-6 System G, BT.601-6 625, BT.1358 625, BT.1700 625 PAL, BT.1700 625 SECAM, IEC 61966-2-4 601
Audio #1
ID                                       : 2
Format                                   : AC-3
Format/Info                              : Audio Coding 3
Mode extension                           : CM (complete main)
Format settings, Endianness              : Big
Codec ID                                 : A_AC3
Duration                                 : 1h 29mn
Bit rate mode                            : Constant
Bit rate                                 : 384 Kbps
Channel(s)                               : 6 channels
Channel positions                        : Front: L C R, Side: L R, LFE
Sampling rate                            : 48.0 KHz
Bit depth                                : 16 bits
Compression mode                         : Lossy
Stream size                              : 246 MiB (12%)
Title                                    : Dub
Language                                 : Russian
Default                                  : Yes
Forced                                   : No
Audio #2
ID                                       : 3
Format                                   : AC-3
Format/Info                              : Audio Coding 3
Mode extension                           : CM (complete main)
Format settings, Endianness              : Big
Codec ID                                 : A_AC3
Duration                                 : 1h 29mn
Bit rate mode                            : Constant
Bit rate                                 : 384 Kbps
Channel(s)                               : 6 channels
Channel positions                        : Front: L C R, Side: L R, LFE
Sampling rate                            : 48.0 KHz
Bit depth                                : 16 bits
Compression mode                         : Lossy
Stream size                              : 246 MiB (12%)
Title                                    : Original
Language                                 : English
Default                                  : No
Forced                                   : No
Text #1
ID                                       : 4
Format                                   : UTF-8
Codec ID                                 : S_TEXT/UTF8
Codec ID/Info                            : UTF-8 Plain Text
Language                                 : Russian
Default                                  : No
Forced                                   : No
Text #2
ID                                       : 5
Format                                   : UTF-8
Codec ID                                 : S_TEXT/UTF8
Codec ID/Info                            : UTF-8 Plain Text
Language                                 : English
Default                                  : No
Forced                                   : No[/color]
General
Complete name                            : C:\Users\Edik\Downloads\Encode\TEMNIE_SILI\Temnie_sili.2005.DVDRip-AVC.MVO.ac3
Format                                   : AC-3
Format/Info                              : Audio Coding 3
File size                                : 246 MiB
Duration                                 : 1h 29mn
Overall bit rate mode                    : Constant
Overall bit rate                         : 384 Kbps
Audio
Format                                   : AC-3
Format/Info                              : Audio Coding 3
Mode extension                           : CM (complete main)
Format settings, Endianness              : Big
Duration                                 : 1h 29mn
Bit rate mode                            : Constant
Bit rate                                 : 384 Kbps
Channel(s)                               : 6 channels
Channel positions                        : Front: L C R, Side: L R, LFE
Sampling rate                            : 48.0 KHz
Bit depth                                : 16 bits
Compression mode                         : Lossy
Stream size                              : 246 MiB (100%)

x264 log

[color=black]...last pass...
x264.exe: --pass 2 --bitrate 2499 --preset placebo --ref 12 --aq-mode 3 --deblock -1:-1 --merange 32 --bframes 13 --no-dct-decimate --qpmin 10 --qpmax 51 --psy-rd 1.00:0.05 --vbv-maxrate 14000 --vbv-bufsize 14000 --me umh --no-mbtree --colorprim bt470bg --transfer bt470bg --colormatrix bt470bg --non-deterministic --psnr --ssim --sar 16:15 --stats "C:\Users\Downloads\Encode\TEMNIE_SILI\TEMNIE_SILI_T02.log" --output "C:\Users\Downloads\Encode\TEMNIE_SILI\TEMNIE_SILI_T02.mp4" "C:\temp\1133.avs"
avs [info]: 720x432p 16:15 @ 25/1 fps (cfr)
x264 [warning]: --psnr used with psy on: results will be invalid!
x264 [warning]: --tune psnr should be used if attempting to benchmark psnr!
x264 [info]: using SAR=16/15
x264 [info]: using cpu capabilities: MMX2 SSE2Fast SSSE3 FastShuffle SSE4.2 AVX
x264 [info]: profile High, level 3.1
x264 [info]: cabac=1 ref=12 deblock=1:-1:-1 analyse=0x3:0x133 me=umh subme=11 psy=1 fade_compensate=0.00 psy_rd=1.00:0.05 mixed_ref=1 me_range=32 chroma_me=1 trellis=2 8x8dct=1 cqm=0 deadzone=21,11 fast_pskip=0 chroma_qp_offset=-3 threads=6 lookahead_threads=1 sliced_threads=0 nr=0 decimate=0 interlaced=0 bluray_compat=0 constrained_intra=0 bframes=13 b_pyramid=2 b_adapt=2 b_bias=0 direct=3 weightb=1 open_gop=0 weightp=2 keyint=250 keyint_min=25 scenecut=40 intra_refresh=0 rc_lookahead=60 rc=2pass mbtree=0 bitrate=2499 ratetol=1.0 qcomp=0.60 qpmin=10 qpmax=51 qpstep=4 cplxblur=20.0 qblur=0.5 vbv_maxrate=14000 vbv_bufsize=14000 nal_hrd=none ip_ratio=1.40 pb_ratio=1.30 aq=3:1.00
x264 [info]: started at Fri Mar 15 08:50:12 2013
x264 [info]: frame I:822   Avg QP:14.40  size: 52121  PSNR Mean Y:48.03 U:51.23 V:51.02 Avg:48.81 Global:48.14
x264 [info]: frame P:32111 Avg QP:16.40  size: 22490  PSNR Mean Y:46.21 U:50.11 V:49.69 Avg:47.10 Global:46.37
x264 [info]: frame B:101199 Avg QP:16.64  size:  8985  PSNR Mean Y:46.05 U:49.83 V:49.48 Avg:46.92 Global:46.42
x264 [info]: consecutive B-frames:  3.9%  3.6% 12.1% 19.7% 13.3% 30.5% 10.8%  1.9%  2.4%  1.0%  0.4%  0.2%  0.1%  0.3%
x264 [info]: mb I  I16..4: 16.3% 69.3% 14.4%
x264 [info]: mb P  I16..4:  1.1% 18.9%  1.6%  P16..4: 23.5% 32.6% 12.1%  5.7%  0.5%    skip: 4.0%
x264 [info]: mb B  I16..4:  0.0%  2.6%  0.1%  B16..8: 31.9% 25.6%  6.3%  direct: 8.2%  skip:25.3%  L0:38.3% L1:44.2% BI:17.5%
x264 [info]: 8x8 transform intra:87.8% inter:56.0%
x264 [info]: direct mvs  spatial:98.3% temporal:1.7%
x264 [info]: coded y,uvDC,uvAC intra: 97.8% 85.2% 69.0% inter: 37.5% 27.2% 16.4%
x264 [info]: i16 v,h,dc,p:  6%  7% 20% 67%
x264 [info]: i8 v,h,dc,ddl,ddr,vr,hd,vl,hu: 10%  8% 12%  9% 12% 13% 12% 12% 12%
x264 [info]: i4 v,h,dc,ddl,ddr,vr,hd,vl,hu:  9%  7%  3%  9% 17% 18% 14% 12% 11%
x264 [info]: i8c dc,h,v,p: 50% 18% 16% 16%
x264 [info]: Weighted P-Frames: Y:4.4% UV:1.8%
x264 [info]: ref P L0: 52.9% 10.2% 14.0%  6.2%  4.5%  3.5%  2.8%  1.7%  1.3%  1.1%  0.9%  0.7%  0.2%  0.0%
x264 [info]: ref B L0: 81.8%  9.3%  3.4%  1.7%  1.2%  0.9%  0.7%  0.4%  0.3%  0.2%  0.1%
x264 [info]: ref B L1: 95.9%  4.1%
x264 [info]: SSIM Mean Y:0.9839456 (17.944db)
x264 [info]: PSNR Mean Y:46.102 U:49.905 V:49.537 Avg:46.975 Global:46.414 kb/s:2496.44
encoded 134132 frames, 5.61 fps, 2496.44 kb/s
x264 [info]: ended at Fri Mar 15 15:28:43 2013
x264 [info]: encoding duration 6:38:31[/color]
[color=black]###[FILTERING]###
LoadPlugin("C:\Program Files\XviD4PSP 5\dlls\AviSynth\plugins\mvtools2.dll")
LoadPlugin("C:\Program Files\XviD4PSP 5\dlls\AviSynth\plugins\flash3kyuu_deband.dll")
Import("C:\Program Files\XviD4PSP 5\dlls\AviSynth\plugins\McDegrainSharp.avs")
setmtmode(2)
setmemorymax(640)
#ColorYUV(gain_y=1,cont_y=5,cont_u=3,cont_v=3,gain_v=0,gain_u=-0,off_u=-0,off_v=-0)
McDegrainSharp(frames=2, bblur=0.6, csharp=0.6, bsrch=true)
f3kdb(sample_mode=2,dynamic_grain=false,keep_tv_range=false,dither_algo=3,y=64,cb=64,cr=64,grainY=44,grainC=16)[/color]

Скриншоты



[Цитировать]



Показать сообщения:    

Текущее время: 08-Дек 07:05

Часовой пояс: UTC + 3


Вы не можете начинать темы
Вы не можете отвечать на сообщения
Вы не можете редактировать свои сообщения
Вы не можете удалять свои сообщения
Вы не можете голосовать в опросах
Вы не можете прикреплять файлы к сообщениям
Вы не можете скачивать файлы

!ВНИМАНИЕ!
Сайт не предоставляет электронные версии произведений, а занимается лишь коллекционированием и каталогизацией ссылок, присылаемых и публикуемых на форуме нашими читателями. Если вы являетесь правообладателем какого-либо представленного материала и не желаете, чтобы ссылка на него находилась в нашем каталоге, свяжитесь с нами, и мы незамедлительно удалим ее. Файлы для обмена на трекере предоставлены пользователями сайта, и администрация не несет ответственности за их содержание. Просьба не заливать файлы, защищенные авторскими правами, а также файлы нелегального содержания!