[ Сегодня идет свободное скачивание без начисления Download ]


Статистика раздачи
Нет
 
   
 
Top  
 
 
И грянул гром / A Sound of Thunder
«Некоторые правила нельзя нарушать»
- Год выпуска: 2005
Страна: Великобритания, США, Германия, Чехия
Жанр: Фантастика, боевик, триллер, приключения-Продолжительность: 1:41:33
Перевод №1: Профессиональный (полное дублирование)
Перевод №2: Профессиональный (двухголосый закадровый) {отдельно}
Оригинальная аудиодорожка: Английская
Cубтитры: Русские, Английские (*.srt)-Режиссер: Питер Хайамс / Peter Hyams
В ролях: Эдвард Бёрнс, Катрин МакКормак, Бен Кингсли, Джемайма Рупер, Дэвид Ойелоуо, Армин Роде, Хайке Макатч, Вильфрид Хохгольдингер, Аугуст Цирнер, Элвин Ван Дер Куеч и др.-Описание: В недалеком будущем, путешествия во времени станут удивительной, непредсказуемой реальностью. За деньги, богатые путешественники могут пробудить свои дремлющие инстинкты охотников, заказывая доисторические сафари, чтобы охотиться на настоящих живых динозавров. Есть только три важных правила, которые нельзя нарушать: не менять ничего в прошлом; не оставлять ничего там; и самое важное — ничего не брать с собой назад. Малейшее изменение могло бы привести к глобальному изменению эволюции способами, которые даже трудно представить…-Бюджет: $80 000 000
Сборы в США: $1 900 451 | Сборы в Мире: + $8 517 765 = $10 418 216 | Сборы в России: $1 130 387
Рейтинг MPAA: PG-13 (Детям до 13 лет просмотр не желателен!)
-Качество видео: DVDRip-AVC
Формат видео: MKV
Видео: [email protected] (2.37:1), 23.976 fps, x264 ~2176 kbps avg, 0.35 bit/pixel
Аудио#1: 48 kHz, AC3, 3/2 (L,C,R,l,r) + LFE ch, ~448 kbps [Dub]
Аудио#2: 48 kHz, AC3, 3/2 (L,C,R,l,r) + LFE ch, ~448 kbps [Original Eng]
Аудио#3: 48 kHz, AC3, 3/2 (L,C,R,l,r) + LFE ch, ~448 kbps [DVO] {отдельно}
Размер: 2.18 GB (? DVD) - без отдельной звуковой дороги!

Интересные факты

  • Сюжет картины основан на одноименном мини-рассказе Рэя Бредбери.
  • По словам Брэдбери, Харлин не хотел включать в фильм эпизод с бабочкой, являющийся ключевым моментом в рассказе.
  • По задумке продюсеров режиссером картины должен был стать Ренни Харлин, а Пирс Броснан должен был исполнить главную роль. Но Ренни доснимался до того, что убрал основной элемент рассказа — бабочку на обуви одного из героев фильма, перенесенную из доисторической эпохи в наше время. Поэтому Ренни ушел из проекта и начал работать над картиной «Охотники за разумом» (2004).
  • В 2002 году во время съемок в Чехии съемочная бригада столкнулась с не имевшим аналогов в истории наводнением, парализовавшим жизнь большей части Европы. Соответственно, часть бюджетных средств была выброшена в трубу, пострадали декорации, актеры, да и сам съемочный процесс растянулся на гораздо более длительный период времени.
  • Съемки картины завершились еще в 2002 году. В 2003 должен был состояться релиз. Одной из основных причин столь длительной задержки считается то обстоятельство, что выпускающая компания умудрилась обанкротиться в самый неподходящий для этого момент, и у них просто-напросто не было достаточного финансирования, чтобы закончить фильм.
  • Супермаркет Spota назван так в честь девичьей фамилии жены режиссера.
  • Владелец фирмы, занимающейся сафари во времени, сравнивает своих клиентов с Марко Поло, Христофором Колумбом и т. д. Среди прочих — некий Чарльз Брубакер, первым высадившийся на Марсе. Это персонаж другого фильма Хаймса «Capricorn One» (1978). Чарльза Брубакера играл актер Джеймс Бролин.

MediaInfo

[color=black]General
Unique ID                                : 243960110836391209683452879680532441326 (0xB789021DF4969B05A050A5B3E38CE8EE)
Complete name                            : C:\Users\Downloads\A_Sound_Of_Thunder_dvd_9\VIDEO_TS\I_grjanul_grom.2005.DVDRip-AVC.[R.G.AllFilms].mkv
Format                                   : Matroska
Format version                           : Version 2
File size                                : 2.18 GiB
Duration                                 : 1h 41mn
Overall bit rate                         : 3 073 Kbps
Movie name                               : A Sound of Thunder (2005) - DVDRip by Juvelir
Encoded date                             : UTC 2013-03-11 22:11:34
Writing application                      : mkvmerge v5.6.0 ('Kenya Kane') built on Jun 29 2012 15:01:44
Writing library                          : libebml v1.2.3 + libmatroska v1.3.0
Video
ID                                       : 1
Format                                   : AVC
Format/Info                              : Advanced Video Codec
Format profile                           : [email protected]
Format settings, CABAC                   : Yes
Format settings, ReFrames                : 10 frames
Codec ID                                 : V_MPEG4/ISO/AVC
Duration                                 : 1h 41mn
Bit rate                                 : 2 176 Kbps
Width                                    : 720 pixels
Height                                   : 360 pixels
Display aspect ratio                     : 2.35:1
Original display aspect ratio            : 2.40:1
Frame rate                               : 23.976 fps
Color space                              : YUV
Chroma subsampling                       : 4:2:0
Bit depth                                : 8 bits
Scan type                                : Progressive
Bits/(Pixel*Frame)                       : 0.350
Stream size                              : 1.50 GiB (69%)
Writing library                          : x264 core 125 r2200kMod 999b753
Encoding settings                        : cabac=1 / ref=10 / deblock=1:-1:-1 / analyse=0x3:0x133 / me=umh / subme=11 / psy=1 / fade_compensate=0.00 / psy_rd=1.05:0.10 / mixed_ref=1 / me_range=48 / chroma_me=1 / trellis=2 / 8x8dct=1 / cqm=0 / deadzone=21,11 / fast_pskip=0 / chroma_qp_offset=-3 / threads=6 / lookahead_threads=1 / sliced_threads=0 / nr=0 / decimate=0 / interlaced=0 / bluray_compat=0 / constrained_intra=0 / bframes=11 / b_pyramid=2 / b_adapt=2 / b_bias=0 / direct=3 / weightb=1 / open_gop=0 / weightp=2 / keyint=240 / keyint_min=23 / scenecut=40 / intra_refresh=0 / rc_lookahead=60 / rc=2pass / mbtree=0 / bitrate=2176 / ratetol=1.0 / qcomp=0.70 / qpmin=10 / qpmax=51 / qpstep=4 / cplxblur=20.0 / qblur=0.5 / vbv_maxrate=14000 / vbv_bufsize=14000 / nal_hrd=none / ip_ratio=1.35 / pb_ratio=1.25 / aq=3:0.90
Default                                  : Yes
Forced                                   : Yes
Color primaries                          : BT.470-6 System B, BT.470-6 System G, BT.601-6 625, BT.1358 625, BT.1700 625 PAL, BT.1700 625 SECAM
Transfer characteristics                 : BT.470-6 System B, BT.470-6 System G
Matrix coefficients                      : BT.470-6 System B, BT.470-6 System G, BT.601-6 625, BT.1358 625, BT.1700 625 PAL, BT.1700 625 SECAM, IEC 61966-2-4 601
Audio #1
ID                                       : 2
Format                                   : AC-3
Format/Info                              : Audio Coding 3
Mode extension                           : CM (complete main)
Format settings, Endianness              : Big
Codec ID                                 : A_AC3
Duration                                 : 1h 41mn
Bit rate mode                            : Constant
Bit rate                                 : 448 Kbps
Channel(s)                               : 6 channels
Channel positions                        : Front: L C R, Side: L R, LFE
Sampling rate                            : 48.0 KHz
Bit depth                                : 16 bits
Compression mode                         : Lossy
Stream size                              : 325 MiB (15%)
Title                                    : Dub
Language                                 : Russian
Default                                  : Yes
Forced                                   : No
Audio #2
ID                                       : 3
Format                                   : AC-3
Format/Info                              : Audio Coding 3
Mode extension                           : CM (complete main)
Format settings, Endianness              : Big
Codec ID                                 : A_AC3
Duration                                 : 1h 41mn
Bit rate mode                            : Constant
Bit rate                                 : 448 Kbps
Channel(s)                               : 6 channels
Channel positions                        : Front: L C R, Side: L R, LFE
Sampling rate                            : 48.0 KHz
Bit depth                                : 16 bits
Compression mode                         : Lossy
Stream size                              : 325 MiB (15%)
Title                                    : Original
Language                                 : English
Default                                  : No
Forced                                   : No
Text #1
ID                                       : 4
Format                                   : UTF-8
Codec ID                                 : S_TEXT/UTF8
Codec ID/Info                            : UTF-8 Plain Text
Language                                 : Russian
Default                                  : No
Forced                                   : No
Text #2
ID                                       : 5
Format                                   : UTF-8
Codec ID                                 : S_TEXT/UTF8
Codec ID/Info                            : UTF-8 Plain Text
Language                                 : English
Default                                  : No
Forced                                   : No[/color]
General
Complete name                            : C:\Users\Downloads\A_Sound_Of_Thunder_dvd_9\VIDEO_TS\I_grjanul_grom.2005.DVDRip-AVC.[R.G.AllFilms].DVO.ac3
Format                                   : AC-3
Format/Info                              : Audio Coding 3
File size                                : 325 MiB
Duration                                 : 1h 41mn
Overall bit rate mode                    : Constant
Overall bit rate                         : 448 Kbps
Audio
Format                                   : AC-3
Format/Info                              : Audio Coding 3
Mode extension                           : CM (complete main)
Format settings, Endianness              : Big
Duration                                 : 1h 41mn
Bit rate mode                            : Constant
Bit rate                                 : 448 Kbps
Channel(s)                               : 6 channels
Channel positions                        : Front: L C R, Side: L R, LFE
Sampling rate                            : 48.0 KHz
Bit depth                                : 16 bits
Compression mode                         : Lossy
Stream size                              : 325 MiB (100%)

x264 log

[color=black]...last pass...
x264.exe: --pass 2 --bitrate 2176 --preset placebo --ref 10 --aq-mode 3 --aq-strength 0.9 --deblock -1:-1 --merange 48 --bframes 11 --no-dct-decimate --qpmin 10 --qpmax 51 --psy-rd 1.05:0.10 --qcomp 0.70 --vbv-maxrate 14000 --vbv-bufsize 14000 --me umh --no-mbtree --keyint 240 --ipratio 1.35 --pbratio 1.25 --colorprim bt470bg --transfer bt470bg --colormatrix bt470bg --psnr --ssim --sar 32:27 --stats "C:\Users\Downloads\A_Sound_Of_Thunder_dvd_9\VIDEO_TS\A_Sound_Of_Thunder_dvd_9_T01.log" --output "C:\Users\Downloads\A_Sound_Of_Thunder_dvd_9\VIDEO_TS\A_Sound_Of_Thunder_dvd_9_T01.mp4" "C:\temp\1114.avs"
avs [info]: 720x360p 32:27 @ 24000/1001 fps (cfr)
x264 [warning]: --psnr used with psy on: results will be invalid!
x264 [warning]: --tune psnr should be used if attempting to benchmark psnr!
x264 [info]: using SAR=32/27
x264 [info]: using cpu capabilities: MMX2 SSE2Fast SSSE3 FastShuffle SSE4.2 AVX
x264 [info]: profile High, level 3.1
x264 [info]: cabac=1 ref=10 deblock=1:-1:-1 analyse=0x3:0x133 me=umh subme=11 psy=1 fade_compensate=0.00 psy_rd=1.05:0.10 mixed_ref=1 me_range=48 chroma_me=1 trellis=2 8x8dct=1 cqm=0 deadzone=21,11 fast_pskip=0 chroma_qp_offset=-3 threads=6 lookahead_threads=1 sliced_threads=0 nr=0 decimate=0 interlaced=0 bluray_compat=0 constrained_intra=0 bframes=11 b_pyramid=2 b_adapt=2 b_bias=0 direct=3 weightb=1 open_gop=0 weightp=2 keyint=240 keyint_min=23 scenecut=40 intra_refresh=0 rc_lookahead=60 rc=2pass mbtree=0 bitrate=2176 ratetol=1.0 qcomp=0.70 qpmin=10 qpmax=51 qpstep=4 cplxblur=20.0 qblur=0.5 vbv_maxrate=14000 vbv_bufsize=14000 nal_hrd=none ip_ratio=1.35 pb_ratio=1.25 aq=3:0.90
x264 [info]: started at Mon Mar 11 21:37:39 2013
x264 [info]: frame I:1800  Avg QP:16.47  size: 40132  PSNR Mean Y:47.30 U:50.06 V:51.18 Avg:48.02 Global:47.12
x264 [info]: frame P:30734 Avg QP:17.94  size: 17612  PSNR Mean Y:46.34 U:50.63 V:52.29 Avg:47.09 Global:45.54
x264 [info]: frame B:113554 Avg QP:18.57  size:  9184  PSNR Mean Y:45.74 U:49.45 V:51.30 Avg:46.45 Global:44.79
x264 [info]: consecutive B-frames:  2.5%  2.5%  7.8% 19.7% 12.9% 41.2%  5.3%  1.7%  1.5%  0.8%  0.8%  3.3%
x264 [info]: mb I  I16..4:  7.0% 76.3% 16.7%
x264 [info]: mb P  I16..4:  2.3% 24.7%  2.2%  P16..4: 23.5% 26.8%  9.1%  3.4%  0.4%    skip: 7.8%
x264 [info]: mb B  I16..4:  0.5%  5.5%  0.3%  B16..8: 29.1% 21.4%  4.7%  direct:12.1%  skip:26.3%  L0:41.1% L1:38.4% BI:20.5%
x264 [info]: 8x8 transform intra:84.9% inter:59.9%
x264 [info]: direct mvs  spatial:96.7% temporal:3.3%
x264 [info]: coded y,uvDC,uvAC intra: 84.2% 88.7% 75.9% inter: 38.6% 42.1% 23.1%
x264 [info]: i16 v,h,dc,p: 53%  9%  9% 29%
x264 [info]: i8 v,h,dc,ddl,ddr,vr,hd,vl,hu: 15%  9% 17%  9%  9% 11%  8% 12% 11%
x264 [info]: i4 v,h,dc,ddl,ddr,vr,hd,vl,hu: 22%  8% 10%  8% 11% 13%  9% 11%  8%
x264 [info]: i8c dc,h,v,p: 49% 16% 19% 15%
x264 [info]: Weighted P-Frames: Y:10.6% UV:7.3%
x264 [info]: ref P L0: 48.2% 10.5% 16.7%  8.0%  5.4%  4.0%  3.0%  1.7%  1.3%  1.0%  0.2%  0.0%
x264 [info]: ref B L0: 70.8% 14.7%  6.5%  3.0%  2.0%  1.4%  1.0%  0.4%  0.1%
x264 [info]: ref B L1: 92.0%  8.0%
x264 [info]: SSIM Mean Y:0.9852882 (18.323db)
x264 [info]: PSNR Mean Y:45.885 U:49.708 V:51.508 Avg:46.601 Global:44.962 kb/s:2174.78
x264 [total]: encoded 146088 frames, 9.96 fps, 2174.78 kb/s
x264 [info]: ended at Tue Mar 12 01:42:02 2013
x264 [info]: encoding duration 4:04:23[/color]

Скриншоты



[Цитировать]



Показать сообщения:    

Текущее время: 06-Дек 13:17

Часовой пояс: UTC + 3


Вы не можете начинать темы
Вы не можете отвечать на сообщения
Вы не можете редактировать свои сообщения
Вы не можете удалять свои сообщения
Вы не можете голосовать в опросах
Вы не можете прикреплять файлы к сообщениям
Вы не можете скачивать файлы

!ВНИМАНИЕ!
Сайт не предоставляет электронные версии произведений, а занимается лишь коллекционированием и каталогизацией ссылок, присылаемых и публикуемых на форуме нашими читателями. Если вы являетесь правообладателем какого-либо представленного материала и не желаете, чтобы ссылка на него находилась в нашем каталоге, свяжитесь с нами, и мы незамедлительно удалим ее. Файлы для обмена на трекере предоставлены пользователями сайта, и администрация не несет ответственности за их содержание. Просьба не заливать файлы, защищенные авторскими правами, а также файлы нелегального содержания!