[ Сегодня идет свободное скачивание без начисления Download ]


Статистика раздачи
Нет
 
   
 
Top  
 
 
Воскрешая мертвецов / Bringing Out the Dead
«Any call can be murder, any stop can be suicide, any night can be the last. And you thought your job was hell?»
- Год выпуска: 1999
Страна: США
Жанр: Триллер, драма-Продолжительность: 2:01:01
Перевод №1: Профессиональный (полное дублирование)
Перевод №2: Авторский (одноголосый закадровый) [А. Гаврилов] {отдельно на файлообменнике}
Перевод №3: Авторский (одноголосый закадровый) [Ю. Живов] {отдельно на файлообменнике}
Субтитры: Нет-Режиссер: Мартин Скорсезе / Martin Scorsese
В ролях: Николас Кейдж, Патриция Аркетт, Джон Гудмен, Винг Реймз, Том Сайзмор, Марк Энтони, Мэри Бет Хёрт, Клифф Кёртис, Нестор Серрано, Аида Туртурро и др.-Описание: Воет сирена. Вспышки слепят глаза. По ночному Нью-Йорку навстречу смерти мчится «Скорая помощь». Фрэнк Пирс — парамедик, работающий в ночную смену. Фрэнка постоянно преследуют видения — призраки людей, которых он так и не сумел спасти. Его жизнь превращается в ад, он — на грани срыва, и все же продолжает борьбу со смертью…-Бюджет: $55 000 000
Сборы в США: $16 797 191
Рейтинг MPAA: R (Лицам до 17 лет обязательно присутствие взрослого!)
-Качество видео: HDRip
Формат видео: AVI
Видео: 720x304 (2.37:1), 23.976 fps, XviD build 73 ~1517 kbps avg, 0.29 bit/pixel
Аудио#1: 48 kHz, AC3 Dolby Digital, 2/0 (L,R) ch, ~192.00 kbps avg [Dub]
Аудио#2: 48 kHz, AC3 Dolby Digital, 3/2 (L,C,R,l,r) + LFE ch, ~448.00 kbps avg [Гаврилов] {отдельно на файлообменнике}
Аудио#3: 48 kHz, AC3 Dolby Digital, 3/2 (L,C,R,l,r) + LFE ch, ~448.00 kbps avg [Живов] {отдельно на файлообменнике}
Размер: 1488.09 Mb ( 1 560 377 344 bytes ) ? DVD

Интересные факты

  • Одного из пациентов «скорой помощи» сыграл Джо Коннелли, автор романа, легшего в основу фильма, сам — врач нью-йоркской «скорой помощи».
  • Перед съемками фильма Кейдж ходил на круглосуточные дежурства вместе с бригадой врачей.
  • Диспетчеров, так и не появляющихся в кадре, «озвучили» Мартин Скорсезе и Куин Латифа.
  • В эпизоде, где Фрэнк пытается спасти Роуз (Синтия Роман), актеры намерено сыграли сцену «задом наперед». Это добавило фантасмагоричности фильму — появилось ощущение, что даже снег не падает, а словно взлетает вверх с земли.

MediaInfo

[color=black]General
Complete name                            : C:\Users\Downloads\Encode\Voskreshaja_mertvecov.WEB-DLRip.[R.G.AllFilms].avi
Format                                   : AVI
Format/Info                              : Audio Video Interleave
File size                                : 1.45 GiB
Duration                                 : 2h 1mn
Overall bit rate                         : 1 719 Kbps
Movie name                               : Bringing Out the Dead (1999) - WEB-DLRip by Juvelir
Writing application                      : VirtualDubMod 1.5.10.3 | www.virtualdub-fr.org || (build 2550/release)
Video
ID                                       : 0
Format                                   : MPEG-4 Visual
Format profile                           : Advanced Simple@L5
Format settings, BVOP                    : 2
Format settings, QPel                    : No
Format settings, GMC                     : No warppoints
Format settings, Matrix                  : Custom
Codec ID                                 : XVID
Codec ID/Hint                            : XviD
Duration                                 : 2h 1mn
Bit rate                                 : 1 518 Kbps
Width                                    : 720 pixels
Height                                   : 304 pixels
Display aspect ratio                     : 2.35:1
Frame rate                               : 23.976 fps
Color space                              : YUV
Chroma subsampling                       : 4:2:0
Bit depth                                : 8 bits
Scan type                                : Progressive
Compression mode                         : Lossy
Bits/(Pixel*Frame)                       : 0.289
Stream size                              : 1.28 GiB (88%)
Writing library                          : XviD 73
Audio
ID                                       : 1
Format                                   : AC-3
Format/Info                              : Audio Coding 3
Mode extension                           : CM (complete main)
Format settings, Endianness              : Big
Codec ID                                 : 2000
Duration                                 : 2h 1mn
Bit rate mode                            : Constant
Bit rate                                 : 192 Kbps
Channel(s)                               : 2 channels
Channel positions                        : Front: L R
Sampling rate                            : 48.0 KHz
Bit depth                                : 16 bits
Compression mode                         : Lossy
Stream size                              : 166 MiB (11%)
Alignment                                : Split accross interleaves
Interleave, duration                     : 42 ms (1.00 video frame)
Interleave, preload duration             : 500 ms[/color]

Скриншоты



[Цитировать]



Показать сообщения:    

Текущее время: 23-Июн 19:54

Часовой пояс: UTC + 6


Вы не можете начинать темы
Вы не можете отвечать на сообщения
Вы не можете редактировать свои сообщения
Вы не можете удалять свои сообщения
Вы не можете голосовать в опросах
Вы не можете прикреплять файлы к сообщениям
Вы не можете скачивать файлы

!ВНИМАНИЕ!
Сайт не предоставляет электронные версии произведений, а занимается лишь коллекционированием и каталогизацией ссылок, присылаемых и публикуемых на форуме нашими читателями. Если вы являетесь правообладателем какого-либо представленного материала и не желаете, чтобы ссылка на него находилась в нашем каталоге, свяжитесь с нами, и мы незамедлительно удалим ее. Файлы для обмена на трекере предоставлены пользователями сайта, и администрация не несет ответственности за их содержание. Просьба не заливать файлы, защищенные авторскими правами, а также файлы нелегального содержания!