[ Сегодня идет свободное скачивание без начисления Download ]


Статистика раздачи
Нет
 
   
 
Top  
 
 
Из ада / From Hell
«Страшная легенда оживает вновь»
Год выпуска: 2001
Страна: США
Жанр: Ужасы, триллер, детектив-Продолжительность: 2:02:12
Перевод №1: Профессиональный (полное дублирование)
Перевод №2: Профессиональный (многоголосый закадровый) [Карусель] {отдельно на файлообменнике}
Перевод №3: Профессиональный (многоголосый закадровый) [R7] {отдельно на файлообменнике}
Перевод №4: Профессиональный (многоголосый закадровый) [Премьер видео] {отдельно на файлообменнике}
Перевод №5: Авторский (одноголосый закадровый) [А. Гаврилов] {отдельно на файлообменнике}
Перевод №6: Одноголосый закадровый [Не опознанный Летающий Объект] {отдельно на файлообменнике}
Субтитры: Нет-Режиссеры: Альберт Хьюз / Albert Hughes, Аллен Хьюз / Allen Hughes
В ролях: Джонни Депп, Хэзер Грэм, Иэн Холм, Робби Колтрейн, Иэн Ричардсон, Джейсон Флеминг, Кэтрин Картлидж, Теренс Харви, Сьюзэн Линч, Пол Рис и др.-Описание: Он — воплощение тьмы и ужаса. Он самый таинственный и знаменитый из всех серийных убийц, известных истории. Он погрузил Англию в атмосферу страха и породил массу слухов и домыслов. Убийца, который знает больше простого мясника или лаборанта. Убивая, он совершает чудовищный ритуал. Его прозвище — Джек-Потрошитель.
Поймать его пытается инспектор Фред Эбберлайн. С помощью опиума он усиливает свой природный дар ясновидения и приходит к выводу, что дело Джека-Потрошителя — часть злодейского заговора, в который замешан Орден Масонов, выполняющий, в свою очередь, волю королевского дома…-Бюджет: $35 000 000
Сборы в США: $31 602 566 | Сборы в Мире: + $42 955 549 = $74 558 115
Рейтинг MPAA: R (Лицам до 17 лет обязательно присутствие взрослого!)
-Качество видео: BDRip
Формат видео: AVI
Видео: 720x304 (2.37:1), 23.976 fps, XviD build 73 ~1251 kbps avg, 0.24 bit/pixel
Аудио#1: 48 kHz, AC3 Dolby Digital, 3/2 (L,C,R,l,r) + LFE ch, ~448.00 kbps avg [Dub]
Аудио#2: 48 kHz, AC3 Dolby Digital, 3/2 (L,C,R,l,r) + LFE ch, ~448.00 kbps avg [Карусель] {отдельно на файлообменнике}
Аудио#3: 48 kHz, AC3 Dolby Digital, 3/2 (L,C,R,l,r) + LFE ch, ~384.00 kbps avg [R7] {отдельно на файлообменнике}
Аудио#4: 48 kHz, AC3 Dolby Digital, 2/0 (L,R) ch, ~192.00 kbps avg [Премьер] {отдельно на файлообменнике}
Аудио#5: 48 kHz, AC3 Dolby Digital, 3/2 (L,C,R,l,r) + LFE ch, ~448.00 kbps avg [Гаврилов] {отдельно на файлообменнике}
Аудио#6: 48 kHz, AC3 Dolby Digital, 3/2 (L,C,R,l,r) + LFE ch, ~448.00 kbps avg [VO] {отдельно на файлообменнике}
Размер: 1493.77 Mb ( 1 566 326 784 bytes ) ? DVD

Интересные факты

  • Фильм «Из Ада» поставлен по известному одноименному роману-комиксу Алана Мура и Эдди Кемпбелла.
  • Знаменитый район Уайтчеппел снимался на старинных улицах Праги. Район был почти до последнего камня мостовой возведен декораторами.
  • Фильм несколько раз переходил от одной студии к другой: Дисней купил права в 1994 году, затем проект перешел к New Line, а осенью 2000 попал к кинокомпании Fox, где и был завершен.
  • Идея причастности к преступлениям Джека-Потрошителя Британской королевской семьи до выхода этого фильма никогда еще не была экранизирована.
  • Реальный Джек Потрошитель не был найден, Джека Потрошителя в фильме посадили в психиатрическую больницу.
  • По требованию студии было снято два варианта окончания фильма: один из них — традиционный хэппи-энд, а другой — более реалистичный.
  • Картина собрала все мифы и свидетельства о Джеке Потрошителе. Один из фактов, видимо, и повлиял на выбор названия: известно, что убийца посылал письма в лондонскую газету «Таймс» и подписывал их двумя словами: «Из ада».

MediaInfo

[color=black]General
Complete name                            : C:\Users\Downloads\Encode\From.Hell.2001.BDRemux.1080p\Iz_ada.2001.BDRip.[R.G.AllFilms].avi
Format                                   : AVI
Format/Info                              : Audio Video Interleave
File size                                : 1.46 GiB
Duration                                 : 2h 2mn
Overall bit rate                         : 1 709 Kbps
Movie name                               : From Hell (2001) - BDRip by Juvelir
Writing application                      : VirtualDubMod 1.5.10.3 | www.virtualdub-fr.org || (build 2550/release)
Writing library                          : VirtualDubMod build 2550/release
Video
ID                                       : 0
Format                                   : MPEG-4 Visual
Format profile                           : Advanced Simple@L5
Format settings, BVOP                    : 2
Format settings, QPel                    : No
Format settings, GMC                     : No warppoints
Format settings, Matrix                  : Custom
Codec ID                                 : XVID
Codec ID/Hint                            : XviD
Duration                                 : 2h 2mn
Bit rate                                 : 1 251 Kbps
Width                                    : 720 pixels
Height                                   : 304 pixels
Display aspect ratio                     : 2.35:1
Frame rate                               : 23.976 fps
Color space                              : YUV
Chroma subsampling                       : 4:2:0
Bit depth                                : 8 bits
Scan type                                : Progressive
Compression mode                         : Lossy
Bits/(Pixel*Frame)                       : 0.238
Stream size                              : 1.07 GiB (73%)
Writing library                          : XviD 73
Audio
ID                                       : 1
Format                                   : AC-3
Format/Info                              : Audio Coding 3
Mode extension                           : CM (complete main)
Format settings, Endianness              : Big
Codec ID                                 : 2000
Duration                                 : 2h 2mn
Bit rate mode                            : Constant
Bit rate                                 : 448 Kbps
Channel(s)                               : 6 channels
Channel positions                        : Front: L C R, Side: L R, LFE
Sampling rate                            : 48.0 KHz
Bit depth                                : 16 bits
Compression mode                         : Lossy
Stream size                              : 392 MiB (26%)
Alignment                                : Split accross interleaves
Interleave, duration                     : 42 ms (1.00 video frame)
Interleave, preload duration             : 500 ms[/color]

Скриншоты




[Цитировать]



Показать сообщения:    

Текущее время: 07-Дек 19:17

Часовой пояс: UTC + 3


Вы не можете начинать темы
Вы не можете отвечать на сообщения
Вы не можете редактировать свои сообщения
Вы не можете удалять свои сообщения
Вы не можете голосовать в опросах
Вы не можете прикреплять файлы к сообщениям
Вы не можете скачивать файлы

!ВНИМАНИЕ!
Сайт не предоставляет электронные версии произведений, а занимается лишь коллекционированием и каталогизацией ссылок, присылаемых и публикуемых на форуме нашими читателями. Если вы являетесь правообладателем какого-либо представленного материала и не желаете, чтобы ссылка на него находилась в нашем каталоге, свяжитесь с нами, и мы незамедлительно удалим ее. Файлы для обмена на трекере предоставлены пользователями сайта, и администрация не несет ответственности за их содержание. Просьба не заливать файлы, защищенные авторскими правами, а также файлы нелегального содержания!