[ Сегодня идет свободное скачивание без начисления Download ]


Статистика раздачи
Нет
 
   
 
Top  
 
 
Считанные секунды / Split Second«He's seen the future...Now he has to kill it. He'll need bigger guns.»
Год выпуска: 1992
Страна: Великобритания
Производство: Challenge Film Corporation, Entertainment, Muse Productions, XYZ Funding N.V.
Жанр: Ужасы, фантастика, боевик, триллер, криминал
Режиссер: Тони Мэйлэм, Йен Шарп
В ролях: Рутгер Хауэр, Ким Кэтролл, Нил Дункан, Майкл Дж. Поллард, Алан Армстронг, Пит Постлетуэйт, Иэн Дёри, Роберта Итон, Тони Стидман, Стивен Хартли
Перевод: Профессиональный (многоголосый, закадровый) [LostFilm] + Профессиональный (многоголосый, закадровый) + Авторский (одноголосый, Владимир Завгородний) + Оригинал
Субтитры: Русские, Английские
Описание: 2008 год. Место действия — туманный Лондон, полузатопленный Темзой после всемирной экологической катастрофы. Город потрясен загадочными, нечеловеческими убийствами. Каждый день на улицах находят трупы людей с разорванной грудной клеткой…

Качество: DVDRip-AVC
Продолжительность: 01:30:49
Формат: MKV
Видео кодек: AVC
Аудио кодек: MP3
Видео: 720x544 (4:3), 23,976 fps, MPEG4 AVC (х264), High@L4.1 ~2500 kbps avg, 0.266 bit/pixel
Аудио №1: 48 kHz, MP3, 2 ch, ~256.00 kbps avg [Профессиональный (многоголосый закадровый, LostFilm)]
Аудио №2: 48 kHz, AC-3, 2 ch, ~192.00 kbps avg [Профессиональный (многоголосый закадровый)]
Аудио №3: 48 kHz, AC-3, 2 ch, ~192.00 kbps avg [Авторский (одноголосый, Владимир Завгородний)]
Аудио №4: 48 kHz, AC-3, 6 ch, ~384.00 kbps avg [Оригинал]

Media Info

General
Unique ID                      : 241602323798662191428803126120755448672 (0xB5C2EA3DAF5C53E19B6E106CDC074B60)
Complete name                  : D:\фильмы\Schitannye.sekundy.1992.DVDRip.AVC.mkv
Format                         : Matroska
Format version                 : Version 2
File size                      : 2.12 GiB
Duration                       : 1h 30mn
Overall bit rate               : 3 341 Kbps
Encoded date                   : UTC 2012-11-20 11:08:45
Writing application            : mkvmerge v4.6.0 ('Still Crazy After All These Years') сборка от Mar 10 2011 02:50:32
Writing library                : libebml v1.2.0 + libmatroska v1.1.0
Video
ID                             : 1
Format                         : AVC
Format/Info                    : Advanced Video Codec
Format profile                 : High@L4.1
Format settings, CABAC         : Yes
Format settings, ReFrames      : 2 frames
Codec ID                       : V_MPEG4/ISO/AVC
Duration                       : 1h 30mn
Bit rate                       : 2 500 Kbps
Width                          : 720 pixels
Height                         : 544 pixels
Display aspect ratio           : 4:3
Frame rate mode                : Variable
Frame rate                     : 23.976 fps
Color space                    : YUV
Chroma subsampling             : 4:2:0
Bit depth                      : 8 bits
Scan type                      : Progressive
Bits/(Pixel*Frame)             : 0.266
Stream size                    : 1.55 GiB (73%)
Writing library                : x264 core 128 r2216
Encoding settings              : cabac=1 / ref=2 / deblock=1:-1:-1 / analyse=0x3:0x133 / me=hex / subme=7 / psy=1 / psy_rd=1.00:0.10 / mixed_ref=0 / me_range=16 / chroma_me=1 / trellis=1 / 8x8dct=1 / cqm=0 / deadzone=21,11 / fast_pskip=1 / chroma_qp_offset=-3 / threads=6 / lookahead_threads=1 / sliced_threads=0 / nr=0 / decimate=1 / interlaced=0 / bluray_compat=0 / constrained_intra=0 / bframes=3 / b_pyramid=0 / b_adapt=1 / b_bias=0 / direct=3 / weightb=1 / open_gop=0 / weightp=2 / keyint=230 / keyint_min=23 / scenecut=40 / intra_refresh=0 / rc_lookahead=40 / rc=2pass / mbtree=1 / bitrate=2500 / ratetol=1.0 / qcomp=0.60 / qpmin=10 / qpmax=69 / qpstep=4 / cplxblur=20.0 / qblur=0.5 / vbv_maxrate=24000 / vbv_bufsize=24000 / nal_hrd=none / ip_ratio=1.40 / aq=1:1.00
Language                       : English
Default                        : Yes
Forced                         : No
Audio #1
ID                             : 2
Format                         : MPEG Audio
Format version                 : Version 1
Format profile                 : Layer 3
Mode                           : Joint stereo
Codec ID                       : A_MPEG/L3
Codec ID/Hint                  : MP3
Duration                       : 1h 30mn
Bit rate mode                  : Constant
Bit rate                       : 256 Kbps
Channel(s)                     : 2 channels
Sampling rate                  : 48.0 KHz
Compression mode               : Lossy
Stream size                    : 166 MiB (8%)
Title                          : MVO_LostFilm
Language                       : Russian
Default                        : Yes
Forced                         : No
Audio #2
ID                             : 3
Format                         : AC-3
Format/Info                    : Audio Coding 3
Format profile                 : Dolby Digital
Mode extension                 : CM (complete main)
Codec ID                       : A_AC3
Duration                       : 1h 30mn
Bit rate mode                  : Constant
Bit rate                       : 192 Kbps
Channel(s)                     : 2 channels
Channel positions              : Front: L R
Sampling rate                  : 48.0 KHz
Bit depth                      : 16 bits
Compression mode               : Lossy
Stream size                    : 125 MiB (6%)
Title                          : MVO
Language                       : Russian
Default                        : No
Forced                         : No
Audio #3
ID                             : 4
Format                         : AC-3
Format/Info                    : Audio Coding 3
Mode extension                 : CM (complete main)
Codec ID                       : A_AC3
Duration                       : 1h 30mn
Bit rate mode                  : Constant
Bit rate                       : 192 Kbps
Channel(s)                     : 2 channels
Channel positions              : Front: L R
Sampling rate                  : 48.0 KHz
Bit depth                      : 16 bits
Compression mode               : Lossy
Stream size                    : 125 MiB (6%)
Title                          : AVO_Zavgorodniy
Language                       : Russian
Default                        : No
Forced                         : No
Audio #4
ID                             : 5
Format                         : AC-3
Format/Info                    : Audio Coding 3
Format profile                 : Dolby Digital
Mode extension                 : CM (complete main)
Codec ID                       : A_AC3
Duration                       : 1h 30mn
Bit rate mode                  : Constant
Bit rate                       : 192 Kbps
Channel(s)                     : 2 channels
Channel positions              : Front: L R
Sampling rate                  : 48.0 KHz
Bit depth                      : 16 bits
Compression mode               : Lossy
Stream size                    : 125 MiB (6%)
Language                       : English
Default                        : No
Forced                         : No
Text #1
ID                             : 6
Format                         : UTF-8
Codec ID                       : S_TEXT/UTF8
Codec ID/Info                  : UTF-8 Plain Text
Language                       : Russian
Default                        : Yes
Forced                         : No
Text #2
ID                             : 7
Format                         : VobSub
Codec ID                       : S_VOBSUB
Codec ID/Info                  : The same subtitle format used on DVDs
Language                       : Russian
Default                        : No
Forced                         : No
Text #3
ID                             : 8
Format                         : VobSub
Codec ID                       : S_VOBSUB
Codec ID/Info                  : The same subtitle format used on DVDs
Language                       : English
Default                        : No
Forced                         : No
Menu
00:00:00.000                   : en:Глава 01
00:10:48.000                   : en:Глава 02
00:17:58.633                   : en:Глава 03
00:29:10.733                   : en:Глава 04
00:36:52.266                   : en:Глава 05
00:51:02.233                   : en:Глава 06
01:03:55.366                   : en:Глава 07
01:12:54.166                   : en:Глава 08
01:20:45.033                   : en:Глава 09
01:27:32.833                   : en:Глава 10

Скриншоты

[Цитировать]



Показать сообщения:    

Текущее время: 24-Янв 16:19

Часовой пояс: UTC + 3


Вы не можете начинать темы
Вы не можете отвечать на сообщения
Вы не можете редактировать свои сообщения
Вы не можете удалять свои сообщения
Вы не можете голосовать в опросах
Вы не можете прикреплять файлы к сообщениям
Вы не можете скачивать файлы

!ВНИМАНИЕ!
Сайт не предоставляет электронные версии произведений, а занимается лишь коллекционированием и каталогизацией ссылок, присылаемых и публикуемых на форуме нашими читателями. Если вы являетесь правообладателем какого-либо представленного материала и не желаете, чтобы ссылка на него находилась в нашем каталоге, свяжитесь с нами, и мы незамедлительно удалим ее. Файлы для обмена на трекере предоставлены пользователями сайта, и администрация не несет ответственности за их содержание. Просьба не заливать файлы, защищенные авторскими правами, а также файлы нелегального содержания!