[ Сегодня идет свободное скачивание без начисления Download ]


Статистика раздачи
Нет
 
   
 
Top  
 
 
Трансформеры: Прайм / Transformers Prime- Страна: США
Жанр: мультфильм, фантастика, боевик, приключения
Продолжительность: 00:22:00
Год выпуска: 2011
Перевод: Профессиональный (дублированный)
Русские субтитры: нет-Режиссёр: Дэвид Хартман / David Hartman-Рейтинг: | -Описание: Уверенные, что опасность миновала, автоботы, тем не менее, оставляют на Земле небольшую группу защитников под руководством Оптимуса Прайма. Предосторожность оказывается не напрасной — три года спустя Мегатрон объявляется снова и приносит с собой Тёмный Энергон, с помощью которого рассчитывает отомстить за прошлое поражение. Автоботы опять вынуждены взяться за оружие. Они подружились с несколькими земными подростками, и теперь команда роботов и людей сражается, чтобы защитить Землю от десептиконов.-Доп. информация: Синхронизация и захват звука - Andron1818-Качество: HDRip [Исходник]
Формат: AVI
Видео: 720x400 (1.80:1), 23.976 fps, XviD build 65 ~2098 kbps avg, 0.30 bit/pixel
Аудио: Русский 48 kHz, AC3 Dolby Digital, 2/0 (L,R) ch, 192 kbps
Аудио: Английский 48 kHz, AC3 Dolby Digital, 3/2 (L,C,R,l,r) + LFE ch, ~448 kbps
Субтитры: Отсутствуют

Список серий

Эпизод 1: Orion Pax: Part 1
Эпизод 2: Orion Pax: Part 2
Эпизод 3: Orion Pax: Part 3
Эпизод 4: Operation Bumblebee: Part 1
Эпизод 5: Operation Bumblebee: Part 2
Эпизод 6: Loose Cannons
Эпизод 7: Crossfire
Эпизод 8: Nemesis Prime
Эпизод 9: Grill
Эпизод 10: Armada
Эпизод 11: Flying Mind
Эпизод 12: Tunnel Vision
Эпизод 13: Triangulation
Эпизод 14: Triage
Эпизод 15: Toxicity
Эпизод 16: Hurt
Эпизод 17: Out of the Past
Эпизод 18: New Recruit
Эпизод 19: The Human Factor
Эпизод 20: Legacy
Эпизод 21: Alpha Omega
Эпизод 22: Hard Knocks
Эпизод 23: Inside Job
Эпизод 24: Patch
Эпизод 25: Regeneration
Эпизод 26: Darkest Hour

Подробные технические данные

Format : AVIFormat/Info : Audio Video InterleaveFile size : 436 MiBDuration : 22mn 7sOverall bit rate : 2 754 KbpsWriting application : VirtualDubMod 1.5.10.3 | www.virtualdub-fr.org || (build 2550/release)Writing library : VirtualDubMod build 2550/release
VideoID : 0Format : MPEG-4 VisualFormat profile : Advanced Simple@L5Format settings, BVOP : 2Format settings, QPel : NoFormat settings, GMC : No warppointsFormat settings, Matrix : CustomCodec ID : XVIDCodec ID/Hint : XviDDuration : 22mn 7sBit rate : 2 099 KbpsWidth : 720 pixelsHeight : 400 pixelsDisplay aspect ratio : 16:9Frame rate : 23.976 fpsColor space : YUVChroma subsampling : 4:2:0Bit depth : 8 bitsScan type : ProgressiveCompression mode : LossyBits/(Pixel*Frame) : 0.304Stream size : 332 MiB (76%)Writing library : XviD 65
Audio #1ID : 1Format : AC-3Format/Info : Audio Coding 3Mode extension : CM (complete main)Format settings, Endianness : BigCodec ID : 2000Duration : 22mn 7sBit rate mode : ConstantBit rate : 192 KbpsChannel(s) : 2 channelsChannel positions : Front: L RSampling rate : 48.0 KHzBit depth : 16 bitsCompression mode : LossyStream size : 30.4 MiB (7%)Alignment : Split accross interleavesInterleave, duration : 42 ms (1.00 video frame)Interleave, preload duration : 500 ms
Audio #2ID : 2Format : AC-3Format/Info : Audio Coding 3Mode extension : CM (complete main)Format settings, Endianness : BigCodec ID : 2000Duration : 22mn 7sBit rate mode : ConstantBit rate : 448 KbpsChannel(s) : 6 channelsChannel positions : Front: L C R, Side: L R, LFESampling rate : 48.0 KHzBit depth : 16 bitsCompression mode : LossyStream size : 70.9 MiB (16%)Alignment : Split accross interleavesInterleave, duration : 42 ms (1.00 video frame)Interleave, preload duration : 500 ms
Все раздачи мультсериала

[Цитировать]

Топик был перенесен из форума Трансформеры в форум Зарубежные мультфильмы
Prizr@k



Показать сообщения:    

Текущее время: 08-Дек 05:12

Часовой пояс: UTC + 3


Вы не можете начинать темы
Вы не можете отвечать на сообщения
Вы не можете редактировать свои сообщения
Вы не можете удалять свои сообщения
Вы не можете голосовать в опросах
Вы не можете прикреплять файлы к сообщениям
Вы не можете скачивать файлы

!ВНИМАНИЕ!
Сайт не предоставляет электронные версии произведений, а занимается лишь коллекционированием и каталогизацией ссылок, присылаемых и публикуемых на форуме нашими читателями. Если вы являетесь правообладателем какого-либо представленного материала и не желаете, чтобы ссылка на него находилась в нашем каталоге, свяжитесь с нами, и мы незамедлительно удалим ее. Файлы для обмена на трекере предоставлены пользователями сайта, и администрация не несет ответственности за их содержание. Просьба не заливать файлы, защищенные авторскими правами, а также файлы нелегального содержания!