[ Сегодня идет свободное скачивание без начисления Download ]


Статистика раздачи
Нет
 
   
 
Top  
 
 
Трансформеры: Прайм / Transformers Prime- Страна: США
Жанр: мультфильм, фантастика, боевик, приключения
Продолжительность: 00:22:00
Год выпуска: 2010
Перевод: Профессиональный (дублированный)
Русские субтитры: нет-Режиссёр: Дэвид Хартман / David Hartman-Рейтинг: | -Описание: Уверенные, что опасность миновала, автоботы, тем не менее, оставляют на Земле небольшую группу защитников под руководством Оптимуса Прайма. Предосторожность оказывается не напрасной — три года спустя Мегатрон объявляется снова и приносит с собой Тёмный Энергон, с помощью которого рассчитывает отомстить за прошлое поражение. Автоботы опять вынуждены взяться за оружие. Они подружились с несколькими земными подростками, и теперь команда роботов и людей сражается, чтобы защитить Землю от десептиконов.-Качество: WEB-DLRip [Исходник]
Формат: AVI
Видео: 704x400 (1.76:1), 23.976 fps, XviD build 65 ~2098 kbps avg, 0.31 bit/pixel
Аудио: Русский 48 kHz, AC3 Dolby Digital, 2/0 (L,R) ch, 192 kbps
Аудио: Английский 48 kHz, AC3 Dolby Digital, 3/2 (L,C,R,l,r) + LFE ch, ~384 kbps
Субтитры: Отсутствуют

Список серий

Эпизод 1: Darkness Rising: Part 1
Эпизод 2: Darkness Rising: Part 2
Эпизод 3: Darkness Rising: Part 3
Эпизод 4: Darkness Rising: Part 4
Эпизод 5: Darkness Rising: Part 5
Эпизод 6: Masters & Students
Эпизод 7: Scrapheap
Эпизод 8: Con Job
Эпизод 9: Convoy
Эпизод 10: Deus Ex Machina
Эпизод 11: Speed Metal
Эпизод 12: Predatory
Эпизод 13: Sick Mind
Эпизод 14: Out of His Head
Эпизод 15: Shadowzone
Эпизод 16: Operation: Breakdown
Эпизод 17: Crisscross
Эпизод 18: Metal Attraction
Эпизод 19: Rock Bottom
Эпизод 20: Partners
Эпизод 21: T.M.I.
Эпизод 22: Stronger, Faster
Эпизод 23: One Shall Fall
Эпизод 24: One Shall Rise: Part 1
Эпизод 25: One Shall Rise: Part 2
Эпизод 26: One Shall Rise: Part 3

Подробные технические данные

Format : AVIFormat/Info : Audio Video InterleaveFile size : 422 MiBDuration : 21mn 56sOverall bit rate : 2 690 KbpsWriting application : VirtualDubMod 1.5.10.3 | www.virtualdub-fr.org || (build 2550/release)Writing library : VirtualDubMod build 2550/release
VideoID : 0Format : MPEG-4 VisualFormat profile : Advanced Simple@L5Format settings, BVOP : 1Format settings, QPel : NoFormat settings, GMC : No warppointsFormat settings, Matrix : CustomCodec ID : XVIDCodec ID/Hint : XviDDuration : 21mn 56sBit rate : 2 100 KbpsWidth : 704 pixelsHeight : 400 pixelsDisplay aspect ratio : 16:9Frame rate : 23.976 fpsColor space : YUVChroma subsampling : 4:2:0Bit depth : 8 bitsScan type : ProgressiveCompression mode : LossyBits/(Pixel*Frame) : 0.311Stream size : 329 MiB (78%)Writing library : XviD 65
Audio #1ID : 1Format : AC-3Format/Info : Audio Coding 3Mode extension : CM (complete main)Codec ID : 2000Duration : 21mn 56sBit rate mode : ConstantBit rate : 192 KbpsChannel(s) : 2 channelsChannel positions : Front: L RSampling rate : 48.0 KHzBit depth : 16 bitsCompression mode : LossyStream size : 30.1 MiB (7%)Alignment : Split accross interleavesInterleave, duration : 42 ms (1.00 video frame)Interleave, preload duration : 500 ms
Audio #2ID : 2Format : AC-3Format/Info : Audio Coding 3Mode extension : CM (complete main)Codec ID : 2000Duration : 21mn 56sBit rate mode : ConstantBit rate : 384 KbpsChannel(s) : 6 channelsChannel positions : Front: L C R, Side: L R, LFESampling rate : 48.0 KHzBit depth : 16 bitsCompression mode : LossyStream size : 60.3 MiB (14%)Alignment : Split accross interleavesInterleave, duration : 42 ms (1.00 video frame)Interleave, preload duration : 500 ms

Скриншоты


[Цитировать]

Топик был перенесен из форума Трансформеры в форум Зарубежные мультфильмы
Prizr@k



Показать сообщения:    

Текущее время: 09-Дек 03:04

Часовой пояс: UTC + 3


Вы не можете начинать темы
Вы не можете отвечать на сообщения
Вы не можете редактировать свои сообщения
Вы не можете удалять свои сообщения
Вы не можете голосовать в опросах
Вы не можете прикреплять файлы к сообщениям
Вы не можете скачивать файлы

!ВНИМАНИЕ!
Сайт не предоставляет электронные версии произведений, а занимается лишь коллекционированием и каталогизацией ссылок, присылаемых и публикуемых на форуме нашими читателями. Если вы являетесь правообладателем какого-либо представленного материала и не желаете, чтобы ссылка на него находилась в нашем каталоге, свяжитесь с нами, и мы незамедлительно удалим ее. Файлы для обмена на трекере предоставлены пользователями сайта, и администрация не несет ответственности за их содержание. Просьба не заливать файлы, защищенные авторскими правами, а также файлы нелегального содержания!