[ Сегодня идет свободное скачивание без начисления Download ]


Статистика раздачи
Нет
 
   
 
 
 
Дети кукурузы 6: Айзек вернулся / Children of the Corn 666: Isaac's Return«The latest and most horrorfying chapter...»
Страна: США
Производство: Blue Rider Pictures
Год выпуска: 1999
Жанр: Ужасы
Режиссёр: Кари Скогланд
В ролях: Натали Рэмси, Джон Фрэнклин, Пол Попович, Нэнси Аллен, Стейси Кич, Аликс Коромзай, Джон Патрик Уайт
Перевод: Профессиональный (двухголосый, закадровый)
Субтитры: Нет
Описание: В надежде найти свою мать Ханна Мартин приезжает в Гэтлин. Это был жуткий город со странными обитателями. Они словно охраняли какую-то тайну. И тот загадочный предсказатель… Что творится здесь? Что?! Просто Айзек вернулся. Воскрес, чтобы исполнить пророчество.

Качество: DVDRip
Продолжительность: 01:18:44 час.
Формат: MP4
Разрешение экрана: 480х256
Видео кодек: AVC
Аудио кодек: AAC
Свойства видео: 480х256 (1,875:1), 25 fps, AVC ~600 kbps avg, 0.195 bit/pixel
Свойства аудио: 48 kHz, AAC, 2 ch, ~160.00 kbps avg

Media Info

Видео
Идентификатор                            : 1
Формат                                   : AVC
Формат/Информация                        : Advanced Video Codec
Профиль формата                          : Baseline@L3.0
Параметр CABAC формата                   : Нет
Параметр ReFrames формата                : 2 кадра
Идентификатор кодека                     : avc1
Идентификатор кодека/Информация          : Advanced Video Coding
Продолжительность                        : 1 ч. 18 м.
Вид битрейта                             : Переменный
Битрейт                                  : 600 Кбит/сек
Ширина                                   : 480 пикселей
Высота                                   : 256 пикселей
Соотношение сторон                       : 1,875
Режим частоты кадров                     : Постоянный
Частота кадров                           : 25,000 кадров/сек
Цветовое пространство                    : YUV
Субдискретизация насыщенности            : 4:2:0
Битовая глубина                          : 8 бит
Тип развёртки                            : Прогрессивная
Бит/(Пиксели*Кадры)                      : 0.195
Размер потока                            : 338 Мбайт (79%)
Библиотека кодирования                   : x264 core 65
Настройки программы                      : cabac=0 / ref=2 / deblock=1:0:0 / analyse=0x1:0x131 / me=umh / subme=6 / psy_rd=1.0:0.0 / mixed_ref=1 / me_range=16 / chroma_me=1 / trellis=0 / 8x8dct=0 / cqm=0 / deadzone=21,11 / chroma_qp_offset=-2 / threads=3 / nr=0 / decimate=1 / mbaff=0 / bframes=0 / keyint=250 / keyint_min=25 / scenecut=40(pre) / rc=2pass / bitrate=600 / ratetol=1.0 / qcomp=0.60 / qpmin=10 / qpmax=51 / qpstep=4 / cplxblur=20.0 / qblur=0.5 / ip_ratio=1.40 / aq=1:1.00
Язык                                     : English
Дата кодирования                         : UTC 2009-09-29 16:06:05
Дата пометки                             : UTC 2009-09-29 17:04:16
Основные цвета                           : BT.601-6 525, BT.1358 525, BT.1700 NTSC, SMPTE 170M
Характеристики трансфера                 : BT.709-5, BT.1361
Коэффициенты матрицы                     : BT.601-6 525, BT.1358 525, BT.1700 NTSC, SMPTE 170M
Аудио
Идентификатор                            : 2
Формат                                   : AAC
Формат/Информация                        : Advanced Audio Codec
Профиль формата                          : LC
Идентификатор кодека                     : 40
Продолжительность                        : 1 ч. 18 м.
Вид битрейта                             : Переменный
Битрейт                                  : 160 Кбит/сек
Каналы                                   : 2 канала
Расположение каналов                     : Front: L R
Частота                                  : 48,0 КГц
Метод сжатия                             : С потерями
Размер потока                            : 90,0 Мбайт (21%)
Дата кодирования                         : UTC 2009-09-29 16:06:05
Дата пометки                             : UTC 2009-09-29 17:04:13

Скриншоты



[Цитировать]



Показать сообщения:    

Текущее время: 07-Дек 23:11

Часовой пояс: UTC + 3


Вы не можете начинать темы
Вы не можете отвечать на сообщения
Вы не можете редактировать свои сообщения
Вы не можете удалять свои сообщения
Вы не можете голосовать в опросах
Вы не можете прикреплять файлы к сообщениям
Вы не можете скачивать файлы

!ВНИМАНИЕ!
Сайт не предоставляет электронные версии произведений, а занимается лишь коллекционированием и каталогизацией ссылок, присылаемых и публикуемых на форуме нашими читателями. Если вы являетесь правообладателем какого-либо представленного материала и не желаете, чтобы ссылка на него находилась в нашем каталоге, свяжитесь с нами, и мы незамедлительно удалим ее. Файлы для обмена на трекере предоставлены пользователями сайта, и администрация не несет ответственности за их содержание. Просьба не заливать файлы, защищенные авторскими правами, а также файлы нелегального содержания!