[ Сегодня идет свободное скачивание без начисления Download ]


Статистика раздачи
Нет
 
   
 
 
 
-Любовь на кончиках пальцев / Populaire (2012) BDRip- Русское название: Любовь на кончиках пальцев
Оригинальное название: Populaire
Год выпуска: 2012
Производство: Франция - Les Productions du Tresor, La Compagnie Cinematographique Europeenne, France 3 Cinema
Жанр: Мелодрама, Комедия
Перевод: Многоголосый закадровый, профессиональный
Озвучка / Автор перевода: Лицензия R5
Субтитры: Вшитые отключаемые
Язык субтитров: Русский
Режиссер: Режис Ройнсар / R?gis Roinsard
Продюсер: Ален Аттал, Ксавьер Амблар, Гаетан Дэвид
Актеры: Ромен Дюрис, Дебора Франсуа, Беренис Бежо, Шон Бенсон, Мелани Бернье, Николя Бедо, Миу-Миу, Эдди Митчелл, Фредерик Пьеро, Федор Аткин
Описание фильма:
Роза живет в провинции со своим отцом, обручена с самым выгодным женихом их городка, и казалось бы, ей предначертана тихая спокойная жизнь домохозяйки. Однако все меняется, когда она встречает красавца Луиса: вместе им предстоит покорить весь мир.
[imdb]tt2070776[/imdb] [kp]629974[/kp]
Дата мировой премьеры: 17 ноября 2012
Дата российской премьеры: 31 января 2013, «Премиум Фильм»
Дата выхода DVD релиза: 7 марта 2013, «CP Дистрибуция»
Продолжительность: 01:50:58
Качество видео: BDRip 1080p
Видеокодек: MPEG-4 AVC/H.264
Видео: H.264, 8358 Кбит/с, 1920x824, 24.000 Кадр/с
Аудио #1: Русский: AC3, 448 кбит/c, 5.1, 48 kHz, 16 bit - многолосый закадровый
Аудио #2: Французский: DTS, 1536 кбит/c, 5.1, 48 kHz, 24 bit
Сохранены оригинальные чаптеры как на Blu-Ray

Рецензия, отзыв о фильме::

Божественный по клавишам стук
Прекрасное кино! Переполняют эмоции, но сейчас самое время их попробовать выразить словами. Сравнить свои ощущения могу с тем, как будто отправился на машине времени в 50-е-60-е годы и побывал на фильме с участием Одри Хепберн. Не зря на эту великую актрису и на фильмы с ее участием есть прямые ссылки.
Да, возможно, Дебора Франсуа — не настолько хороша и харизматична, как ее эталон, к тому же, она не брюнетка, а блондинка. Но дух ее роли, легкий дух кинолент ТОГО времени присутствует в каждом кадре «Любви…», картина пропитана этим жизнерадостным духом.
Бесконечно приятна, мила глазу и сердцу режиссура — вроде бы заурядная история рассказана очень талантливо. Некоторых штампов, разумеется, не удалось избежать — все-таки это ярко выраженное жанровое кино. Но постановщик с оператором даже в предсказуемом сюжете наглядно продемонстрировали, как можно держать интригу и подчеркивать главные кульминационные моменты с помощью чисто кинематографических методов.
За актерскую игру хочется поблагодарить Ромена Дюриса — ему удавалось быть и обаятельным, и в то же время глубоким, и чувственным, и по-мужски неприступным и даже холодным. В общем, передать все эти нюансы, мне кажется, у него прекрасно получилось.
В итоге — чудесный французский винтаж, который идеально впишется в февральский вечер и еще немного приблизит приход долгожданной весны.

9 и 10

MediaInfo:

Общее
Уникальный идентификатор : 212126808501847268881830426942286567622 (0x9F962322D294D29BAC19613F508B98C6)
Полное имя : D:\Video\Populaire.2012.x264.BluRay.1080p.ac3.dts.Rus.Fre.mkv
Формат : Matroska
Версия формата : Version 4 / Version 2
Размер файла : 7,99 Гбайт
Продолжительность : 1 ч. 50 м.
Общий поток : 10,3 Мбит/сек
Дата кодирования : UTC 2013-03-31 01:00:24
Программа кодирования : mkvmerge v6.1.0 ('Old Devil') built on Mar 2 2013 14:32:37
Библиотека кодирования : libebml v1.3.0 + libmatroska v1.4.0
Видео
Идентификатор : 1
Формат : AVC
Формат/Информация : Advanced Video Codec
Профиль формата : High@L4.1
Параметр CABAC формата : Да
Параметр ReFrames формата : 5 кадров
Идентификатор кодека : V_MPEG4/ISO/AVC
Продолжительность : 1 ч. 50 м.
Битрейт : 8358 Кбит/сек
Ширина : 1920 пикселей
Высота : 824 пикселя
Соотношение сторон : 2,35:1
Частота кадров : 24,000 кадра/сек
Цветовое пространство : YUV
Субдискретизация насыщенности : 4:2:0
Битовая глубина : 8 бит
Тип развёртки : Прогрессивная
Бит/(Пиксели*Кадры) : 0.220
Размер потока : 6,31 Гбайт (79%)
Библиотека кодирования : x264 core 130 r2273 b3065e6
Настройки программы : cabac=1 / ref=5 / deblock=1:0:0 / analyse=0x3:0x133 / me=umh / subme=7 / psy=1 / psy_rd=1.00:0.00 / mixed_ref=1 / me_range=16 / chroma_me=1 / trellis=1 / 8x8dct=1 / cqm=0 / deadzone=21,11 / fast_pskip=0 / chroma_qp_offset=-2 / threads=24 / lookahead_threads=4 / sliced_threads=0 / nr=0 / decimate=1 / interlaced=0 / bluray_compat=0 / constrained_intra=0 / bframes=3 / b_pyramid=2 / b_adapt=1 / b_bias=0 / direct=1 / weightb=1 / open_gop=0 / weightp=2 / keyint=250 / keyint_min=24 / scenecut=40 / intra_refresh=0 / rc=2pass / mbtree=0 / bitrate=8358 / ratetol=1.0 / qcomp=0.60 / qpmin=0 / qpmax=69 / qpstep=4 / cplxblur=20.0 / qblur=0.5 / ip_ratio=1.40 / pb_ratio=1.30 / aq=1:1.00
Язык : English
Default : Да
Forced : Нет
Аудио #1
Идентификатор : 2
Формат : AC-3
Формат/Информация : Audio Coding 3
Расширение режима : CM (complete main)
Идентификатор кодека : A_AC3
Продолжительность : 1 ч. 50 м.
Вид битрейта : Постоянный
Битрейт : 448 Кбит/сек
Каналы : 6 каналов
Расположение каналов : Front: L C R, Side: L R, LFE
Частота : 48,0 КГц
Битовая глубина : 16 бит
Метод сжатия : С потерями
Размер потока : 356 Мбайт (4%)
Язык : Russian
Default : Да
Forced : Нет
Аудио #2
Идентификатор : 3
Формат : DTS
Формат/Информация : Digital Theater Systems
Идентификатор кодека : A_DTS
Продолжительность : 1 ч. 50 м.
Вид битрейта : Постоянный
Битрейт : 1510 Кбит/сек
Каналы : 6 каналов
Расположение каналов : Front: L C R, Side: L R, LFE
Частота : 48,0 КГц
Битовая глубина : 24 бит
Метод сжатия : С потерями
Размер потока : 1,17 Гбайт (15%)
Язык : French
Default : Нет
Forced : Нет
Текст
Идентификатор : 4
Формат : UTF-8
Идентификатор кодека : S_TEXT/UTF8
Идентификатор кодека/Информация : UTF-8 Plain Text
Язык : Russian
Default : Нет
Forced : Нет
Меню
00:00:00.000 : en:00:00:00.000
00:12:00.083 : en:00:12:00.083
00:22:43.833 : en:00:22:43.833
00:35:25.042 : en:00:35:25.042
00:47:50.250 : en:00:47:50.250
01:00:10.875 : en:01:00:10.875
01:12:05.208 : en:01:12:05.208
01:24:40.125 : en:01:24:40.125
01:37:33.625 : en:01:37:33.625
Скриншоты:


Время раздачи: с 10:00 до 20:00 (GMT+2) - до 10 скачавшихНе забываем говорить

[Цитировать]

Топик был перенесен из форума Новинки кинопроката (HD Video) в форум Сцен рипы


Bootch



Показать сообщения:    

Текущее время: 02-Дек 22:48

Часовой пояс: UTC + 3


Вы не можете начинать темы
Вы не можете отвечать на сообщения
Вы не можете редактировать свои сообщения
Вы не можете удалять свои сообщения
Вы не можете голосовать в опросах
Вы не можете прикреплять файлы к сообщениям
Вы не можете скачивать файлы

!ВНИМАНИЕ!
Сайт не предоставляет электронные версии произведений, а занимается лишь коллекционированием и каталогизацией ссылок, присылаемых и публикуемых на форуме нашими читателями. Если вы являетесь правообладателем какого-либо представленного материала и не желаете, чтобы ссылка на него находилась в нашем каталоге, свяжитесь с нами, и мы незамедлительно удалим ее. Файлы для обмена на трекере предоставлены пользователями сайта, и администрация не несет ответственности за их содержание. Просьба не заливать файлы, защищенные авторскими правами, а также файлы нелегального содержания!