[ Сегодня идет свободное скачивание без начисления Download ]


Статистика раздачи
Нет
 
   
 
Top  
 
 
Злой / Ведьма / The Wicked
Страна: США
Жанр: ужасы, боевик, триллер
Год выпуска: 2013
Продолжительность: 01:44:57
Перевод: Любительский (двухголосый закадровый) - den904 & DeadSno, перевод - Janetta
Оригинальная аудиодорожка: английский
Cубтитры: английские (полные)-Режиссер: Питер Уинтер / Peter Winther
В ролях: Девон Веркхейзер, Джастин Дили, Джесс Адамс, Джэми Калер, Кэйтлин Кармайкл, Диана Хоппер, Жаклин Гоци, Чейз Мэйсер, Роберт Янг, Кэсси Келлер
Описание: Несколько подростков, решив проверить легенду о бессмертной ведьме, отправились в лес к таинственному старому дому. Разумеется, они получили сполна...-Премьера: 30.04.2013-СЭМПЛ
Тип релиза: BDRip-AVC
Исходник: The Wicked 2013 1080p Blu-ray Remux AVC DTS-HD MA 5.1 - KRaLiMaRKo
Контейнер: MKV
Видео: 1152x648p / 23.976 fps / 16:9 / High Profile 4.1 / AVC / ~ 2078 Kbps
Аудио 1: AC3 / 448 Kbps / 5.1 / 48 kHz / Russian / DVO
Аудио 2: AC3 / 448 Kbps / 5.1 / 48 kHz / English / original
Формат субтитров: softsub (SRT)-IMDB * КиноПоиск

MediaInfo / x264 log

General
Complete name : The.Wicked.2013.BDRip-AVC.VO.mkv
Format : Matroska
Format version : Version 2
File size : 2.18 GiB
Duration : 1h 44mn
Overall bit rate : 2 976 Kbps
Encoded date : UTC 2013-03-30 09:52:20
Writing application : mkvmerge v5.4.0 ('Piper') built on Mar 10 2012 13:34:39
Writing library : libebml v1.2.3 + libmatroska v1.3.0
Video
ID : 1
Format : AVC
Format/Info : Advanced Video Codec
Format profile : High@L4.1
Format settings, CABAC : Yes
Format settings, ReFrames : 11 frames
Codec ID : V_MPEG4/ISO/AVC
Duration : 1h 44mn
Bit rate : 2 078 Kbps
Width : 1 152 pixels
Height : 648 pixels
Display aspect ratio : 16:9
Frame rate : 23.976 fps
Color space : YUV
Chroma subsampling : 4:2:0
Bit depth : 8 bits
Scan type : Progressive
Bits/(Pixel*Frame) : 0.116
Stream size : 1.48 GiB (68%)
Title : The Wicked 2013
Writing library : x264 core 122 r2184 5c85e0a
Encoding settings : cabac=1 / ref=11 / deblock=1:-3:-3 / analyse=0x3:0x113 / me=umh / subme=9 / psy=1 / psy_rd=1.10:0.00 / mixed_ref=1 / me_range=24 / chroma_me=1 / trellis=2 / 8x8dct=1 / cqm=0 / deadzone=21,11 / fast_pskip=1 / chroma_qp_offset=-2 / threads=6 / sliced_threads=0 / nr=0 / decimate=1 / interlaced=0 / bluray_compat=0 / constrained_intra=0 / bframes=9 / b_pyramid=2 / b_adapt=2 / b_bias=0 / direct=3 / weightb=1 / open_gop=0 / weightp=2 / keyint=250 / keyint_min=23 / scenecut=40 / intra_refresh=0 / rc_lookahead=60 / rc=2pass / mbtree=1 / bitrate=2078 / ratetol=1.0 / qcomp=0.60 / qpmin=0 / qpmax=69 / qpstep=4 / cplxblur=20.0 / qblur=0.5 / ip_ratio=1.40 / aq=1:0.90
Default : Yes
Forced : No
Audio #1
ID : 2
Format : AC-3
Format/Info : Audio Coding 3
Mode extension : CM (complete main)
Format settings, Endianness : Big
Codec ID : A_AC3
Duration : 1h 44mn
Bit rate mode : Constant
Bit rate : 448 Kbps
Channel(s) : 6 channels
Channel positions : Front: L C R, Side: L R, LFE
Sampling rate : 48.0 KHz
Bit depth : 16 bits
Compression mode : Lossy
Stream size : 336 MiB (15%)
Title : RUS AC3 448 Kbps 6ch VO den904 & DeadSno
Language : Russian
Default : Yes
Forced : No
Audio #2
ID : 3
Format : AC-3
Format/Info : Audio Coding 3
Mode extension : CM (complete main)
Format settings, Endianness : Big
Codec ID : A_AC3
Duration : 1h 44mn
Bit rate mode : Constant
Bit rate : 448 Kbps
Channel(s) : 6 channels
Channel positions : Front: L C R, Side: L R, LFE
Sampling rate : 48.0 KHz
Bit depth : 16 bits
Compression mode : Lossy
Stream size : 336 MiB (15%)
Title : ENG AC3 448 Kbps 6ch original
Language : English
Default : No
Forced : No
Text
ID : 4
Format : UTF-8
Codec ID : S_TEXT/UTF8
Codec ID/Info : UTF-8 Plain Text
Title : ENG Subtitles Full
Language : English
Default : No
Forced : No
Menu
00:00:00.000 : :Chapter 01
00:09:54.969 : :Chapter 02
00:17:59.912 : :Chapter 03
00:29:27.933 : :Chapter 04
00:40:01.983 : :Chapter 05
00:47:34.935 : :Chapter 06
01:00:03.975 : :Chapter 07
01:08:10.920 : :Chapter 08
01:19:45.906 : :Chapter 09
01:29:26.903 : :Chapter 10
01:34:52.937 : :Chapter 11
01:38:15.890 : :Chapter 12
01:41:54.984 : :Chapter 13-x264 [info]: frame I:1191 Avg QP:15.84 size: 86751
x264 [info]: frame P:33349 Avg QP:19.09 size: 23971
x264 [info]: frame B:116442 Avg QP:21.77 size: 6294
x264 [info]: consecutive B-frames: 1.9% 3.6% 9.1% 19.8% 17.8% 38.9% 5.0% 1.5% 1.6% 0.7%

Скриншот с названием

Скриншоты



-

[Цитировать]

Топик был перенесен из форума Новинки кинопроката в форум Ужасы

Причина переноса: Премьеры в РФ или РК не было. по этому по жанру
EnergyStar



Показать сообщения:    

Текущее время: 21-Июл 00:24

Часовой пояс: UTC + 6


Вы не можете начинать темы
Вы не можете отвечать на сообщения
Вы не можете редактировать свои сообщения
Вы не можете удалять свои сообщения
Вы не можете голосовать в опросах
Вы не можете прикреплять файлы к сообщениям
Вы не можете скачивать файлы

!ВНИМАНИЕ!
Сайт не предоставляет электронные версии произведений, а занимается лишь коллекционированием и каталогизацией ссылок, присылаемых и публикуемых на форуме нашими читателями. Если вы являетесь правообладателем какого-либо представленного материала и не желаете, чтобы ссылка на него находилась в нашем каталоге, свяжитесь с нами, и мы незамедлительно удалим ее. Файлы для обмена на трекере предоставлены пользователями сайта, и администрация не несет ответственности за их содержание. Просьба не заливать файлы, защищенные авторскими правами, а также файлы нелегального содержания!