[ Сегодня идет свободное скачивание без начисления Download ]


Статистика раздачи
Нет
 
   
 
Top  
 
 
Плохие мальчики / Bad Boys«In their world, if you're 17 and still alive you're a survivor»
Год выпуска: 1983
Страна: СШA
Производство: EMI Films Ltd., Solofilm
Жанр: триллер, драма, криминал
Режиссер: Рик Розенталь
В ролях: Шон Пенн, Рени Сантони, Джим Муди, Эрик Гарри, Эсай Моралес, Элли Шиди, Клэнси Браун, Роберт Ли Раш, Джон Зенда, Алан Рак, Тони Мокус мл., Дин Фортунато, Лоуренс Мах, Хорхе Ноа, Рэй Кабальеро, Марта Де Ла Круз, Рэй Рамирез, Юджин Дж. Энтони, Эндрю Горман, Марко А. Дэвид, Дон Джеймс, Джейн Олдермен, Рик Розенталь, Фран Стоун, Омар С. Саундерс, Кевин Спрингс, Эрик Дэвид, Робин Коулмэн, Марвин Таунс, Аарон Холден, Билл Мартин мл., Майлс О’Доннелл, Эдвард Кернс, Бренда Джойс Майнор, Питер Киркпатрик, Дэвид Баррет, Джордж Барроу, Сэл Амато, Джейсон Гедрик, Роберт Минкофф, Дик Солленбергер, Роб Уимберли, Родерик Уимберли
Перевод:Профессиональный (многоголосый, закадровый) + Оригинал
Субтитры: Русские
Описание: Предводители двух враждебных молодежных банд посажены в исправительную тюрьму для несовершеннолетних преступников. Взаимная ненависть и нарастающее давление заключенных, жаждущих крови, толкает их на смертельную схватку…

Качество: BDRip 720p
Продолжительность: 02:03:49
Формат: MKV
Видео кодек: AVC [email protected]
Аудио кодек: AC3
Видео: 1280 x 696 (1.839), 23.976 fps, ~6085 kbps, 0.277 bit / pixel
Аудио №1: 48 kHz, AC-3, 6 ch~448 kbps, Русский, Профессиональный (многоголосый)
Аудио №2: 48 kHz, DTS, 6 ch~1510 kbps, Английский, (оригинал)
Главы: Нет

Media Info

General
Unique ID                      : 182294570410377277034894657466842508731 (0x8924A83D4AFAE8DA85204B1C22346DBB)
Complete name                  : D:\фильмы\Plohie.malchiki.1983.BDRip.720p.mkv
Format                         : Matroska
Format version                 : Version 2
File size                      : 6.95 GiB
Duration                       : 2h 3mn
Overall bit rate               : 8 036 Kbps
Movie name                     : --SCHUMAHER--
Encoded date                   : UTC 2011-02-06 21:40:56
Writing application            : mkvmerge v4.0.0 ('The Stars were mine') сборка от Jun  6 2010 16:18:42
Writing library                : libebml v1.0.0 + libmatroska v1.0.0
Video
ID                             : 1
Format                         : AVC
Format/Info                    : Advanced Video Codec
Format profile                 : [email protected]
Format settings, CABAC         : Yes
Format settings, ReFrames      : 5 frames
Codec ID                       : V_MPEG4/ISO/AVC
Duration                       : 2h 3mn
Bit rate                       : 6 085 Kbps
Width                          : 1 280 pixels
Height                         : 696 pixels
Display aspect ratio           : 16:9
Frame rate                     : 23.976 fps
Color space                    : YUV
Chroma subsampling             : 4:2:0
Bit depth                      : 8 bits
Scan type                      : Progressive
Bits/(Pixel*Frame)             : 0.285
Stream size                    : 5.12 GiB (74%)
Writing library                : x264 core 113 r1884 7313bb5
Encoding settings              : cabac=1 / ref=5 / deblock=1:0:0 / analyse=0x3:0x133 / me=umh / subme=8 / psy=1 / psy_rd=1.00:0.00 / mixed_ref=1 / me_range=16 / chroma_me=1 / trellis=1 / 8x8dct=1 / cqm=0 / deadzone=21,11 / fast_pskip=0 / chroma_qp_offset=-2 / threads=12 / sliced_threads=0 / nr=0 / decimate=1 / interlaced=0 / constrained_intra=0 / bframes=3 / b_pyramid=2 / b_adapt=1 / b_bias=0 / direct=1 / weightb=1 / open_gop=0 / weightp=2 / keyint=240 / keyint_min=24 / scenecut=40 / intra_refresh=0 / rc_lookahead=40 / rc=2pass / mbtree=1 / bitrate=6085 / ratetol=1.0 / qcomp=0.60 / qpmin=0 / qpmax=69 / qpstep=4 / cplxblur=20.0 / qblur=0.5 / ip_ratio=1.40 / aq=1:1.00
Language                       : English
Default                        : Yes
Forced                         : Yes
Audio #1
ID                             : 2
Format                         : AC-3
Format/Info                    : Audio Coding 3
Mode extension                 : CM (complete main)
Codec ID                       : A_AC3
Duration                       : 2h 3mn
Bit rate mode                  : Constant
Bit rate                       : 448 Kbps
Channel(s)                     : 6 channels
Channel positions              : Front: L C R, Side: L R, LFE
Sampling rate                  : 48.0 KHz
Bit depth                      : 16 bits
Compression mode               : Lossy
Stream size                    : 397 MiB (6%)
Language                       : Russian
Default                        : Yes
Forced                         : Yes
Audio #2
ID                             : 3
Format                         : DTS
Format/Info                    : Digital Theater Systems
Codec ID                       : A_DTS
Duration                       : 2h 3mn
Bit rate mode                  : Constant
Bit rate                       : 1 510 Kbps
Channel(s)                     : 2 channels
Channel positions              : Front: L R
Sampling rate                  : 48.0 KHz
Bit depth                      : 24 bits
Compression mode               : Lossy
Delay relative to video        : 11ms
Stream size                    : 1.31 GiB (19%)
Language                       : English
Default                        : No
Forced                         : No
Text
ID                             : 4
Format                         : UTF-8
Codec ID                       : S_TEXT/UTF8
Codec ID/Info                  : UTF-8 Plain Text
Language                       : Russian
Default                        : No
Forced                         : No

Скриншоты

[Цитировать]



Показать сообщения:    

Текущее время: 05-Дек 07:34

Часовой пояс: UTC + 3


Вы не можете начинать темы
Вы не можете отвечать на сообщения
Вы не можете редактировать свои сообщения
Вы не можете удалять свои сообщения
Вы не можете голосовать в опросах
Вы не можете прикреплять файлы к сообщениям
Вы не можете скачивать файлы

!ВНИМАНИЕ!
Сайт не предоставляет электронные версии произведений, а занимается лишь коллекционированием и каталогизацией ссылок, присылаемых и публикуемых на форуме нашими читателями. Если вы являетесь правообладателем какого-либо представленного материала и не желаете, чтобы ссылка на него находилась в нашем каталоге, свяжитесь с нами, и мы незамедлительно удалим ее. Файлы для обмена на трекере предоставлены пользователями сайта, и администрация не несет ответственности за их содержание. Просьба не заливать файлы, защищенные авторскими правами, а также файлы нелегального содержания!