[ Today is free to download without increasing Download ]

DL-List and Torrent activity
Удар молнии / Struck by Lightning«A personal raincloud can be deadly...» -Страна: США
Жанр: драма, комедия
Год выпуска: 2012
Продолжительность: 01:23:39
Перевод: Профессиональный (многоголосый закадровый)
Cубтитры: нет-Режиссер: Брайан Дэннели / Brian Dannelly-В ролях: Крис Колфер, Ребел Уилсон, Сара Хайланд, Кристина Хендрикс, Эллисон Дженни, Дермот Малруни, Эшли Рикардс, Элли Грант, Робби Амелл, Мэтт Прокоп-Описание: События в фильме описываются с точки зрения воспоминаний студента Карсона Филлипса, которого убивает ударом молнии. История о том, как шантажировал своих одноклассников с целью содействия в публикации в литературном журнале, а также о его отношениях с матерью, Шэрил Филлипс, которая пытается восстановить связь с сыном до его отъезда в колледж.-[imdb]tt1791614[/imdb] [kp]582441[/kp]-Релиз от: -Качество видео: BDRip |исходник: / Blu-ray / 1080p|
Формат видео: AVI
Видео: 720x400 (16:9), 23.976 fps, XviD 65 ~2023 kbps avg, 0.293 bit/pixel
Аудио: 48 kHz, AC3 Dolby Digital, 3/2 (L,C,R,l,r) + LFE ch, 448.00 kbps Constant |Многоголосый закадровый|
Скачать: Сэмпл-


Complete name : Udar.molnii.2012.P.BDRip.1.45MB_by_Yarmak23.avi
Format : AVI
Format/Info : Audio Video Interleave
File size : 1.45 GiB
Duration : 1h 23mn
Overall bit rate : 2 480 Kbps
Writing application : VirtualDubModRus (build 2542/release)
Writing library : VirtualDubMod build 2542/release
ID : 0
Format : MPEG-4 Visual
Format profile : Advanced Simple@L5
Format settings, BVOP : 1
Format settings, QPel : No
Format settings, GMC : No warppoints
Format settings, Matrix : Custom
Codec ID : XVID
Codec ID/Hint : XviD
Duration : 1h 23mn
Bit rate : 2 023 Kbps
Width : 720 pixels
Height : 400 pixels
Display aspect ratio : 16:9
Frame rate : 23.976 fps
Color space : YUV
Chroma subsampling : 4:2:0
Bit depth : 8 bits
Scan type : Progressive
Compression mode : Lossy
Bits/(Pixel*Frame) : 0.293
Stream size : 1.18 GiB (82%)
Writing library : XviD 65
ID : 1
Format : AC-3
Format/Info : Audio Coding 3
Mode extension : CM (complete main)
Format settings, Endianness : Big
Codec ID : 2000
Duration : 1h 23mn
Bit rate mode : Constant
Bit rate : 448 Kbps
Channel(s) : 6 channels
Channel positions : Front: L C R, Side: L R, LFE
Sampling rate : 48.0 KHz
Bit depth : 16 bits
Compression mode : Lossy
Stream size : 268 MiB (18%)
Alignment : Split accross interleaves
Interleave, duration : 42 ms (1.00 video frame)
Interleave, preload duration : 500 ms



Display posts:    

Current time is: 28-Oct 18:59

All times are UTC + 3

You cannot post new topics in this forum
You cannot reply to topics in this forum
You cannot edit your posts in this forum
You cannot delete your posts in this forum
You cannot vote in polls in this forum
You cannot attach files in this forum
You cannot download files in this forum

The site does not give electronic versions of products, and is engaged only in a collecting and cataloguing of the references sent and published at a forum by our readers. If you are the legal owner of any submitted material and do not wish that the reference to it was in our catalogue, contact us and we shall immediately remove her. Files for an exchange on tracker are given by users of a site, and the administration does not bear the responsibility for their maintenance. The request to not fill in the files protected by copyrights, and also files of the illegal maintenance!