[ Сегодня идет свободное скачивание без начисления Download ]


Статистика раздачи
Нет
 
   
 
Top  
 
 
Удар молнии / Struck by Lightning«A personal raincloud can be deadly...» -Страна: США
Жанр: драма, комедия
Год выпуска: 2012
Продолжительность: 01:23:39
Перевод: Профессиональный (многоголосый закадровый)
Cубтитры: нет-Режиссер: Брайан Дэннели / Brian Dannelly-В ролях: Крис Колфер, Ребел Уилсон, Сара Хайланд, Кристина Хендрикс, Эллисон Дженни, Дермот Малруни, Эшли Рикардс, Элли Грант, Робби Амелл, Мэтт Прокоп-Описание: События в фильме описываются с точки зрения воспоминаний студента Карсона Филлипса, которого убивает ударом молнии. История о том, как шантажировал своих одноклассников с целью содействия в публикации в литературном журнале, а также о его отношениях с матерью, Шэрил Филлипс, которая пытается восстановить связь с сыном до его отъезда в колледж.-[imdb]tt1791614[/imdb] [kp]582441[/kp]-Релиз от: -Качество видео: BDRip |исходник: / Blu-ray / 1080p|
Формат видео: AVI
Видео: 720x400 (16:9), 23.976 fps, XviD 65 ~2023 kbps avg, 0.293 bit/pixel
Аудио: 48 kHz, AC3 Dolby Digital, 3/2 (L,C,R,l,r) + LFE ch, 448.00 kbps Constant |Многоголосый закадровый|
Скачать: Сэмпл-

MI

General
Complete name : Udar.molnii.2012.P.BDRip.1.45MB_by_Yarmak23.avi
Format : AVI
Format/Info : Audio Video Interleave
File size : 1.45 GiB
Duration : 1h 23mn
Overall bit rate : 2 480 Kbps
Writing application : VirtualDubModRus 1.5.10.2 (build 2542/release)
Writing library : VirtualDubMod build 2542/release
Video
ID : 0
Format : MPEG-4 Visual
Format profile : Advanced [email protected]
Format settings, BVOP : 1
Format settings, QPel : No
Format settings, GMC : No warppoints
Format settings, Matrix : Custom
Codec ID : XVID
Codec ID/Hint : XviD
Duration : 1h 23mn
Bit rate : 2 023 Kbps
Width : 720 pixels
Height : 400 pixels
Display aspect ratio : 16:9
Frame rate : 23.976 fps
Color space : YUV
Chroma subsampling : 4:2:0
Bit depth : 8 bits
Scan type : Progressive
Compression mode : Lossy
Bits/(Pixel*Frame) : 0.293
Stream size : 1.18 GiB (82%)
Writing library : XviD 65
Audio
ID : 1
Format : AC-3
Format/Info : Audio Coding 3
Mode extension : CM (complete main)
Format settings, Endianness : Big
Codec ID : 2000
Duration : 1h 23mn
Bit rate mode : Constant
Bit rate : 448 Kbps
Channel(s) : 6 channels
Channel positions : Front: L C R, Side: L R, LFE
Sampling rate : 48.0 KHz
Bit depth : 16 bits
Compression mode : Lossy
Stream size : 268 MiB (18%)
Alignment : Split accross interleaves
Interleave, duration : 42 ms (1.00 video frame)
Interleave, preload duration : 500 ms

Скриншоты

[Цитировать]



Показать сообщения:    

Текущее время: 06-Дек 22:59

Часовой пояс: UTC + 3


Вы не можете начинать темы
Вы не можете отвечать на сообщения
Вы не можете редактировать свои сообщения
Вы не можете удалять свои сообщения
Вы не можете голосовать в опросах
Вы не можете прикреплять файлы к сообщениям
Вы не можете скачивать файлы

!ВНИМАНИЕ!
Сайт не предоставляет электронные версии произведений, а занимается лишь коллекционированием и каталогизацией ссылок, присылаемых и публикуемых на форуме нашими читателями. Если вы являетесь правообладателем какого-либо представленного материала и не желаете, чтобы ссылка на него находилась в нашем каталоге, свяжитесь с нами, и мы незамедлительно удалим ее. Файлы для обмена на трекере предоставлены пользователями сайта, и администрация не несет ответственности за их содержание. Просьба не заливать файлы, защищенные авторскими правами, а также файлы нелегального содержания!