[ Сегодня идет свободное скачивание без начисления Download ]


Статистика раздачи
Нет
 
   
 
Top  
 
 
-Секс и ничего лишнего / My Awkward Sexual Adventure (2012) Blu-ray [1080p]- Русское название: Секс и ничего лишнего
Оригинальное название: My Awkward Sexual Adventure
Год выпуска: 2012
Производство: Канада
Жанр: комедия
Перевод: Закадровый многоголосый
Язык субтитров: Русский
Дата мировой премьеры: 11 сентября 2012
Дата премьеры (РФ): 14 марта 2013, «Премиум Фильм»
Релиз на Blu-Ray (РФ): 4 апреля 2013, «CP Дистрибуция»-Режиссер: Шон Гэррити
Актеры: Йонас Черник, Эмили Хэмпшир, Сара Мэннинен, Вик Сахай, Мелисса Мари Елиас, Аиша Альфа, Онали Эймс, Рэнди Апостл, Майк Белл, Джессика Бёрлсон-Описание фильма: Чтобы вернуть свою неудовлетворенную бывшую девушку, консервативный бухгалтер Джордан Абрамс заручается поддержкой Юлии - раскованной экзотической танцовщицы, которая отправляет его на поиски сексуального опыта, что открывает перед ним мир стрип-клубов, чувственных массажных салонов, переодеваний в женскую одежду и садомазохизма.

Релиз от: (За исходник спасибо BLUEBIRD)
Продолжительность: 01:43:23
Качество видео: BDRemux (batonchik)
Видеокодек: Видео: MPEG-4 AVC Video
Битрейт видео: ~ 14752 kbps
Размер кадра: 1920x1080
Аудио:
1. Russian / DTS-HD Master Audio / 5.1 / 48 kHz / 1908 kbps / 16-bit
2. English / DTS-HD Master Audio / 5.1 / 48 kHz / 1867 kbps / 16-bit
-Главы: имеются

MediaInfo 0.7.62

Общее
Уникальный идентификатор : 223559322334650262658065883479389248162 (0xA82FF596333BC3EA922BC02EFA581AA2)
Полное имя : \Секс и ничего лишнего.2012.BDRemux.NNM-CLUB.mkv
Формат : Matroska
Версия формата : Version 2
Размер файла : 12,8 Гбайт
Продолжительность : 1 ч. 43 м.
Режим общего битрейта : Переменный
Общий поток : 17,8 Мбит/сек
Название фильма : Секс и ничего лишнего.2012.BDRemux.NNM-CLUB
Дата кодирования : UTC 2013-04-01 14:53:56
Программа кодирования : mkvmerge v5.8.0 ('No Sleep / Pillow') built on Sep 2 2012 15:37:04
Библиотека кодирования : libebml v1.2.3 + libmatroska v1.3.0
Видео
Идентификатор : 1
Формат : AVC
Формат/Информация : Advanced Video Codec
Профиль формата : Main@L4.1
Параметр CABAC формата : Да
Параметр ReFrames формата : 3 кадра
Режим смешивания : Container profile=Unknown@0.0
Идентификатор кодека : V_MPEG4/ISO/AVC
Продолжительность : 1 ч. 43 м.
Вид битрейта : Переменный
Битрейт : 14,4 Мбит/сек
Максимальный битрейт : 25,0 Мбит/сек
Ширина : 1920 пикселей
Высота : 1080 пикселей
Соотношение сторон : 16:9
Режим частоты кадров : Постоянный
Частота кадров : 24,000 кадра/сек
Стандарт вещания : NTSC
Цветовое пространство : YUV
Субдискретизация насыщенности : 4:2:0
Битовая глубина : 8 бит
Тип развёртки : Прогрессивная
Бит/(Пиксели*Кадры) : 0.290
Размер потока : 10,4 Гбайт (81%)
Заголовок : Секс и ничего лишнего.2012.BDRemux.NNM-CLUB
Язык : English
Default : Нет
Forced : Нет
Аудио #1
Идентификатор : 2
Формат : DTS
Формат/Информация : Digital Theater Systems
Режим : 16
Параметр Endianness формата : Big
Идентификатор кодека : A_DTS
Продолжительность : 1 ч. 43 м.
Вид битрейта : Постоянный
Битрейт : 1509 Кбит/сек
Каналы : 6 каналов
Расположение каналов : Front: L C R, Side: L R, LFE
Частота : 48,0 КГц
Битовая глубина : 24 бит
Метод сжатия : С потерями
Размер потока : 1,09 Гбайт (8%)
Заголовок : Закадровый многоголосый
Язык : Russian
Default : Да
Forced : Нет
Аудио #2
Идентификатор : 3
Формат : DTS
Формат/Информация : Digital Theater Systems
Режим : 16
Параметр Endianness формата : Big
Идентификатор кодека : A_DTS
Продолжительность : 1 ч. 43 м.
Вид битрейта : Постоянный
Битрейт : 1509 Кбит/сек
Каналы : 6 каналов
Расположение каналов : Front: L C R, Side: L R, LFE
Частота : 48,0 КГц
Битовая глубина : 24 бит
Метод сжатия : С потерями
Размер потока : 1,09 Гбайт (8%)
Заголовок : Оригинал
Язык : English
Default : Нет
Forced : Нет
Текст
Идентификатор : 4
Формат : PGS
Режим смешивания : zlib
Идентификатор кодека : S_HDMV/PGS
Идентификатор кодека/Информация : The same subtitle format used on BDs/HD-DVDs
Язык : Russian
Default : Нет
Forced : Нет
Меню
00:00:00.000 : en:Chapter 01
00:05:17.625 : en:Chapter 02
00:10:47.250 : en:Chapter 03
00:21:32.708 : en:Chapter 04
00:32:26.666 : en:Chapter 05
00:40:38.916 : en:Chapter 06
00:51:19.416 : en:Chapter 07
00:59:48.708 : en:Chapter 08
01:11:45.125 : en:Chapter 09
01:21:30.666 : en:Chapter 10
01:25:48.750 : en:Chapter 11
01:32:39.708 : en:Chapter 12
Скриншоты:




Время раздачи: круглогодичноИграю на аккордеоне за "Спасибо"

[Цитировать]

Топик был перенесен из форума Новинки кинопроката (HD Video) в форум Зарубежное кино (HD Video)
Bootch



Показать сообщения:    

Текущее время: 08-Дек 23:12

Часовой пояс: UTC + 3


Вы не можете начинать темы
Вы не можете отвечать на сообщения
Вы не можете редактировать свои сообщения
Вы не можете удалять свои сообщения
Вы не можете голосовать в опросах
Вы не можете прикреплять файлы к сообщениям
Вы не можете скачивать файлы

!ВНИМАНИЕ!
Сайт не предоставляет электронные версии произведений, а занимается лишь коллекционированием и каталогизацией ссылок, присылаемых и публикуемых на форуме нашими читателями. Если вы являетесь правообладателем какого-либо представленного материала и не желаете, чтобы ссылка на него находилась в нашем каталоге, свяжитесь с нами, и мы незамедлительно удалим ее. Файлы для обмена на трекере предоставлены пользователями сайта, и администрация не несет ответственности за их содержание. Просьба не заливать файлы, защищенные авторскими правами, а также файлы нелегального содержания!