[ Сегодня идет свободное скачивание без начисления Download ]


Статистика раздачи
Нет
 
   
 
Top  
 
 
-Отряд героев / Company of Heroes (2013) HDRip- Русское название: Отряд героев
Оригинальное название: Company of Heroes
Год выпуска: 2013
Производство: США
Жанр: Боевик, Военный
Перевод: Профессиональный многоголосый, закадровый
Субтитры: Отсутствуют-Дата мировой премьеры: 19 марта 2013
Дата выхода DVD релиза: 2 апреля 2013, «Columbia/Sony»-Режиссер: Дон Майкл Пол-Продюсер: Джеффри Бич, Филлип Дж. Рот, Чериз Хони-Актеры: Дмитрий Дьяченко, Винни Джонс, Нил МакДонаф, Том Сайзмор, Юрген Прохнов, Чад Коллинз, Мелиа Крейлинг-Описание фильма:
Американские солдаты, попавшие в тыл врага во время Второй мировой войны, узнают, что у Гитлера есть модернизированная бомба. Несмотря на все трудности, они отправляются на поиски ученого, отвечающего за эту бомбу.- [/url][url=http://www.imdb.com/title/tt2555426/]
Продолжительность: 01:40:27
Качество видео: HDRip
Видеокодек: Xvid
Битрейт видео: ~ 1683 Кбит/сек
Размер кадра: 720 x 400 (1.800) at 23.976 fps
Аудиокодек: AC3 5.1
Битрейт аудио: 384 Кбит/сек (6ch), 48,0 КГц, 16 бит
Релиз:

MediaInfo:

Полное имя                               : G:\Фильмы 2011-12\Отряд героев  Company of Heroes  2013  HDRip\Otrjad.geroev.2013.P.HDRip.avi
Формат                                   : AVI
Формат/Информация                        : Audio Video Interleave
Размер файла                             : 1,46 Гбайт
Продолжительность                        : 1 ч. 40 м.
Общий поток                              : 2076 Кбит/сек
Программа кодирования                    : VirtualDubMod 1.5.10.2 (build 2540/release)
Видео
Идентификатор                            : 0
Формат                                   : MPEG-4 Visual
Профиль формата                          : Advanced [email protected]
Параметр BVOP формата                    : 1
Параметр QPel формата                    : Нет
Параметр GMC формата                     : Без точки перехода
Параметр матрицы формата                 : Выборочная
Идентификатор кодека                     : XVID
Идентификатор кодека/Подсказка           : XviD
Продолжительность                        : 1 ч. 40 м.
Битрейт                                  : 1683 Кбит/сек
Ширина                                   : 720 пикселей
Высота                                   : 400 пикселей
Соотношение сторон                       : 16:9
Частота кадров                           : 23,976 кадра/сек
Цветовое пространство                    : YUV
Субдискретизация насыщенности            : 4:2:0
Битовая глубина                          : 8 бит
Тип развёртки                            : Прогрессивная
Метод сжатия                             : С потерями
Бит/(Пиксели*Кадры)                      : 0.244
Размер потока                            : 1,18 Гбайт (81%)
Библиотека кодирования                   : XviD 1.2.1 (UTC 2008-12-04)
Аудио
Идентификатор                            : 1
Формат                                   : AC-3
Формат/Информация                        : Audio Coding 3
Расширение режима                        : CM (complete main)
Параметр Endianness формата              : Big
Идентификатор кодека                     : 2000
Продолжительность                        : 1 ч. 40 м.
Вид битрейта                             : Постоянный
Битрейт                                  : 384 Кбит/сек
Каналы                                   : 6 каналов
Расположение каналов                     : Front: L C R, Side: L R, LFE
Частота                                  : 48,0 КГц
Битовая глубина                          : 16 бит
Метод сжатия                             : С потерями
Размер потока                            : 276 Мбайт (18%)
Выравнивание                             : Разделение по промежуткам
Продолжительность промежутка             : 42  мс. (1,00 видеокадр)
Время предзагрузки промежутка            : 500  мс.
Скриншоты:



Время раздачи: 24/7 (до 10 скачавших)

[Цитировать]

Топик был перенесен из форума Новинки кинопроката в форум Боевик
Henkok



Показать сообщения:    

Текущее время: 04-Дек 13:18

Часовой пояс: UTC + 3


Вы не можете начинать темы
Вы не можете отвечать на сообщения
Вы не можете редактировать свои сообщения
Вы не можете удалять свои сообщения
Вы не можете голосовать в опросах
Вы не можете прикреплять файлы к сообщениям
Вы не можете скачивать файлы

!ВНИМАНИЕ!
Сайт не предоставляет электронные версии произведений, а занимается лишь коллекционированием и каталогизацией ссылок, присылаемых и публикуемых на форуме нашими читателями. Если вы являетесь правообладателем какого-либо представленного материала и не желаете, чтобы ссылка на него находилась в нашем каталоге, свяжитесь с нами, и мы незамедлительно удалим ее. Файлы для обмена на трекере предоставлены пользователями сайта, и администрация не несет ответственности за их содержание. Просьба не заливать файлы, защищенные авторскими правами, а также файлы нелегального содержания!