[ Сегодня идет свободное скачивание без начисления Download ]


Статистика раздачи
Нет
 
   
 
 
 
-Секс и ничего лишнего / My Awkward Sexual Adventure (2012) BDRip«Комедия, которая доведёт вас до О...»- Русское название: Секс и ничего лишнего
Оригинальное название: My Awkward Sexual Adventure
Год выпуска: 2012
Производство: Канада / Banana-Moon Sky Films, Julijette, Kosher Sexy Films
Жанр: Комедия
Перевод: Профессиональный (многоголосый) [лицензия]
Субтитры: Отсутствуют
Дата мировой премьеры: 11 сентября 2012
Дата российской премьеры: 14 марта 2013, «Премиум Фильм»
Дата выхода DVD релиза: 4 апреля 2013, «CP Дистрибуция»
Дата выхода Blu-Ray релиза: 4 апреля 2013, «CP Дистрибуция»
Режиссер: Шон Гэррити
Продюсер: Йонас Черник, Джульетт Хагопиан, Норман Денвер
Актеры: Йонас Черник, Эмили Хэмпшир, Сара Мэннинен, Вик Сахай, Мелисса Мари Елиас, Аиша Альфа, Онали Эймс, Рэнди Апостл, Майк Белл, Джессика Бёрлсон
Описание фильма:
Чтобы вернуть свою неудовлетворенную бывшую девушку, консервативный бухгалтер Джордан Абрамс заручается поддержкой Юлии — раскованной экзотической танцовщицы, которая отправляет его на поиски сексуального опыта, что открывает перед ним мир стрип-клубов, чувственных массажных салонов, переодеваний в женскую одежду и садомазохизма.- -Продолжительность: 01:43:23
Качество видео: BDRip 720p
Видеокодек: MPEG-4 AVC/H.264
Битрейт видео: ~4523 Kbit/s
Размер кадра: 1280 x 720
Aудио #1: DTS, 48,0 КHz, 5.1, 1510 Kbit/s - Русский
Aудио #2: DTS, 48,0 КHz, 5.1, 1510 Kbit/s - Aнглийский

MediaInfo

Общее
Уникальный идентификатор : 177776247463596260301657891135879973518 (0x85BE75B803CC2FE5BEF01F78B6150A8E)
Полное имя : D:\Торренты\Секс и ничего лишнего.2012.BDRip.720p.mkv
Формат : Matroska
Размер файла : 5,56 Гбайт
Продолжительность : 1 ч. 43 м.
Общий поток : 7695 Кбит/сек
Дата кодирования : UTC 2013-04-01 12:45:21
Программа кодирования : mkvmerge v5.2.0 ('I can't explain')
Библиотека кодирования : libebml v1.2.3 + libmatroska v1.3.0
Видео
Идентификатор : 1
Формат : AVC
Формат/Информация : Advanced Video Codec
Профиль формата : High@L4.1
Параметр CABAC формата : Да
Параметр ReFrames формата : 5 кадров
Параметры GOP формата : M=4, N=24
Идентификатор кодека : V_MPEG4/ISO/AVC
Продолжительность : 1 ч. 43 м.
Битрейт : 4523 Кбит/сек
Ширина : 1280 пикс.
Высота : 720 пикс.
Соотношение сторон : 16:9
Частота кадров : 24,000 кадр/сек
Цветовое пространство : YUV
Подвыборка цветности : 4:2:0
Битовая глубина : 8 бит
Тип развёртки : Прогрессивная
Бит/(Пиксели*Кадры) : 0.204
Размер потока : 3,27 Гбайт (59%)
Библиотека кодирования : x264 core 130 r2273 b3065e6
Настройки программы : cabac=1 / ref=5 / deblock=1:-1:-1 / analyse=0x3:0x113 / me=dia / subme=1 / psy=1 / psy_rd=1.00:0.15 / mixed_ref=1 / me_range=16 / chroma_me=1 / trellis=1 / 8x8dct=1 / cqm=0 / deadzone=21,11 / fast_pskip=1 / chroma_qp_offset=-1 / threads=12 / lookahead_threads=2 / sliced_threads=0 / nr=0 / decimate=1 / interlaced=0 / bluray_compat=0 / constrained_intra=0 / bframes=3 / b_pyramid=2 / b_adapt=1 / b_bias=0 / direct=1 / weightb=1 / open_gop=0 / weightp=2 / keyint=250 / keyint_min=24 / scenecut=40 / intra_refresh=0 / rc_lookahead=40 / rc=crf / mbtree=1 / crf=17.0 / qcomp=0.60 / qpmin=0 / qpmax=69 / qpstep=4 / ip_ratio=1.40 / aq=1:1.00
Язык : English
Аудио #1
Идентификатор : 2
Формат : DTS
Формат/Информация : Digital Theater Systems
Идентификатор кодека : A_DTS
Продолжительность : 1 ч. 43 м.
Вид битрейта : Постоянный
Битрейт : 1510 Кбит/сек
Каналы : 6 каналов
Расположение каналов : Front: L C R, Side: L R, LFE
Частота : 48,0 КГц
Битовая глубина : 16 бит
Метод сжатия : С потерями
Размер потока : 1,09 Гбайт (20%)
Язык : Russian
Аудио #2
Идентификатор : 3
Формат : DTS
Формат/Информация : Digital Theater Systems
Идентификатор кодека : A_DTS
Продолжительность : 1 ч. 43 м.
Вид битрейта : Постоянный
Битрейт : 1510 Кбит/сек
Каналы : 6 каналов
Расположение каналов : Front: L C R, Side: L R, LFE
Частота : 48,0 КГц
Битовая глубина : 16 бит
Метод сжатия : С потерями
Размер потока : 1,09 Гбайт (20%)
Язык : English
Скриншоты:
Время раздачи: 24/7 по возможности

[Цитировать]

Топик был перенесен из форума Новинки кинопроката (HD Video) в форум Сцен рипы


Bootch



Показать сообщения:    

Текущее время: 28-Фев 01:40

Часовой пояс: UTC + 3


Вы не можете начинать темы
Вы не можете отвечать на сообщения
Вы не можете редактировать свои сообщения
Вы не можете удалять свои сообщения
Вы не можете голосовать в опросах
Вы не можете прикреплять файлы к сообщениям
Вы не можете скачивать файлы

!ВНИМАНИЕ!
Сайт не предоставляет электронные версии произведений, а занимается лишь коллекционированием и каталогизацией ссылок, присылаемых и публикуемых на форуме нашими читателями. Если вы являетесь правообладателем какого-либо представленного материала и не желаете, чтобы ссылка на него находилась в нашем каталоге, свяжитесь с нами, и мы незамедлительно удалим ее. Файлы для обмена на трекере предоставлены пользователями сайта, и администрация не несет ответственности за их содержание. Просьба не заливать файлы, защищенные авторскими правами, а также файлы нелегального содержания!