[ Сегодня идет свободное скачивание без начисления Download ]


Статистика раздачи
Нет
 
   
 
Top  
 
 
-Калейдоскоп любви / 360 (2011) BDRip- Русское название: Калейдоскоп любви
Оригинальное название: 360
Год выпуска: 2011
Выпущено: Франция, Бразилия, Великобритания, Австрия / BBC Films, UK Film Council, ORF Film/Fernseh-Abkommen
Жанр: Драма, Мелодрама
Описание фильма:
Они — из разных социальных слоев. Но что-то притягивает их друг к другу. Только секс? Или это все-таки любовь? Ведь человек всегда глубже того, чем он сам думает о себе…
Несколько современных историй о персонажах из разных городов и стран, объединены в яркий, напряженный, пропитанный ожиданием и проникающий в душу рассказ о любви. Начинаясь в Вене, захватывающее повествование переносит зрителя в Париж, Лондон, Братиславу, Рио, Денвер и Финикс.
Режиссер: Фернанду Мейреллиш
Актеры: Энтони Хопкинс, Джуд Лоу, Рейчел Вайс, Бен Фостер, Марк Иванир, Мориц Бляйбтрой, Жамель Деббуз, Питер Морган, Тереза Србова, Катрина Васильева, Владимир Вдовиченков
Продолжительность: 01:50:12
Перевод: Многоголосый закадровый профессиональный [Лицензия]
Язык субтитров: Английский, Испанский
Вид субтитров: Вшитые отключаемые- -
Дата мировой премьеры: 9 сентября 2011
Дата российской премьеры: 14 февраля 2013, «Top Film Distribution»
Дата выхода DVD релиза: 28 марта 2013, «Новый Диск», «New Dream media»
Видеокодек: MPEG-4 AVC/H.264
Битрейт видео: ~7000 kb/s
Размер кадра: 1280x544
Качество видео: BDRip 720p
Аудио 1: Русский: AC3, 448 kb/s (6 ch)
Аудио 2: Английский: DTS, 1536 kb/s (6 ch)
Дополнительно: Сохранены оригинальные чаптеры как на Bluray

MediaInfo:

General
Unique ID : 194644784838448705409308338737652029453 (0x926F38D2A09846288AED774875A1D80D)
Complete name : D:\Video\Kaleydoskop.ljubvi.2012.P.BDRip.720p.mkv
Format : Matroska
Format version : Version 2
File size : 6.89 GiB
Duration : 1h 50mn
Overall bit rate : 8 956 Kbps
Encoded date : UTC 2013-04-02 01:36:11
Writing application : mkvmerge v5.5.0 ('Healer') built on Apr 6 2012 21:43:24
Writing library : libebml v1.2.3 + libmatroska v1.3.0
Video
ID : 1
Format : AVC
Format/Info : Advanced Video Codec
Format profile : [email protected]
Format settings, CABAC : Yes
Format settings, ReFrames : 9 frames
Codec ID : V_MPEG4/ISO/AVC
Duration : 1h 50mn
Bit rate : 7 000 Kbps
Width : 1 280 pixels
Height : 544 pixels
Display aspect ratio : 2.35:1
Frame rate mode : Constant
Frame rate : 23.976 fps
Color space : YUV
Chroma subsampling : 4:2:0
Bit depth : 8 bits
Scan type : Progressive
Bits/(Pixel*Frame) : 0.419
Stream size : 5.25 GiB (76%)
Title : 360 2011
Writing library : x264 core 128 r2216 198a7ea
Encoding settings : cabac=1 / ref=9 / deblock=1:-3:-3 / analyse=0x3:0x113 / me=tesa / subme=11 / psy=1 / psy_rd=1.05:0.00 / mixed_ref=1 / me_range=16 / chroma_me=1 / trellis=2 / 8x8dct=1 / cqm=0 / deadzone=21,11 / fast_pskip=0 / chroma_qp_offset=-2 / threads=12 / lookahead_threads=2 / sliced_threads=0 / nr=0 / decimate=0 / interlaced=0 / bluray_compat=0 / constrained_intra=0 / bframes=8 / b_pyramid=2 / b_adapt=2 / b_bias=0 / direct=3 / weightb=1 / open_gop=0 / weightp=2 / keyint=250 / keyint_min=23 / scenecut=40 / intra_refresh=0 / rc=2pass / mbtree=0 / bitrate=7000 / ratetol=1.0 / qcomp=0.60 / qpmin=0 / qpmax=69 / qpstep=4 / cplxblur=20.0 / qblur=0.5 / ip_ratio=1.40 / pb_ratio=1.30 / aq=1:0.60
Language : English
Default : Yes
Forced : No
Audio #1
ID : 2
Format : AC-3
Format/Info : Audio Coding 3
Mode extension : CM (complete main)
Format settings, Endianness : Big
Codec ID : A_AC3
Duration : 1h 50mn
Bit rate mode : Constant
Bit rate : 448 Kbps
Channel(s) : 6 channels
Channel positions : Front: L C R, Side: L R, LFE
Sampling rate : 48.0 KHz
Bit depth : 16 bits
Compression mode : Lossy
Delay relative to video : 8s 0ms
Stream size : 353 MiB (5%)
Language : Russian
Default : Yes
Forced : No
Audio #2
ID : 3
Format : DTS
Format/Info : Digital Theater Systems
Mode : 16
Format settings, Endianness : Big
Codec ID : A_DTS
Duration : 1h 50mn
Bit rate mode : Constant
Bit rate : 1 509 Kbps
Channel(s) : 6 channels
Channel positions : Front: L C R, Side: L R, LFE
Sampling rate : 48.0 KHz
Bit depth : 24 bits
Compression mode : Lossy
Stream size : 1.16 GiB (17%)
Language : English
Default : No
Forced : No
Text #1
ID : 4
Format : UTF-8
Codec ID : S_TEXT/UTF8
Codec ID/Info : UTF-8 Plain Text
Language : English
Default : Yes
Forced : No
Text #2
ID : 5
Format : UTF-8
Codec ID : S_TEXT/UTF8
Codec ID/Info : UTF-8 Plain Text
Language : Spanish
Default : No
Forced : No
Menu
00:00:00.000 : en:00:00:00.000
00:09:47.086 : en:00:09:47.086
00:17:43.729 : en:00:17:43.729
00:31:08.825 : en:00:31:08.825
00:37:20.113 : en:00:37:20.113
00:46:21.570 : en:00:46:21.570
01:02:08.475 : en:01:02:08.475
01:15:42.955 : en:01:15:42.955
01:20:43.088 : en:01:20:43.088
01:26:03.158 : en:01:26:03.158
01:37:47.070 : en:01:37:47.070
01:44:42.568 : en:01:44:42.568

Рецензия, отзыв о фильме

Начнем с того, что это еще один неудачный пример перевода названия фильма на русский язык. И в данном случае, прокол очень весомый. Люди видят название: «Калейдоскоп любви» и ожидают увидеть романтическую комедийную мелодраму. Увы и ах! Романтики, жаждущие легкого смотрива — вам не в эту дверь. Это фильм о чем угодно — о выборе пути, о человеческих ошибках, о сексе как способе достижения каких-то жизненных высот и статусов, о трансформации семейных отношений и ценностей, о запутавшихся в себе и своих чувствах людях, о борьбе с искушениями, ну и о любви — но любви не столько в классическом ее понимании, как маскулинно-феминных взаимоотношений (здесь ей если и уделено, то процентов 10 экранного времени), а скорее о любви к Родине, о любви отца к дочери… Как-то так. Забавно, что одной из основных мыслей этих историй было изучение английского, который объединяет миры, культуры и для многих людей — единственный шанс изменить свою жизнь в лучшую сторону. Обидно, что те, кто дублировал, отнеслись к переводу названия столь халтурным образом.
Но фильм интересный, необычный. Я бы даже сказала, неожиданный. Интересен он прежде всего тем, что режиссер-бразилец собрал на площадке такой разнопёрый актерский состав: Джуд Лоу, Рейчел Вайс, Энтони Хопкинс, Мориц Бляйбтрой, Владимир Вдовиченков, Жамель Деббуз (один из знаковых актеров Жан-Пьера Жёне), бразильские, восточноевропейские актеры… Фернанду Мейреллиш снимает очень честное, бескомпромиссное кино. И очень разное. «360 градусов» — кино интернациональное, снятое в европейском стиле. Практически ничего общего с неистовым, знойным, динамичным и жёстким «Городом Бога». Собственно и смысл оригинального названия в том, что история сделала оборот по земному шару и возвернулась на круги своя. Повествование кидает нас то в Колорадо, то в Дэнвер, то в Вену, то в Братиславу, то в Париж, то в Лондон… Герои пересекаются друг с другом в самолетах, гостиницах, аэропортах, на улицах, создавая причудливую паутину человеческих связей и отношений, подчас мимолетных. И все это жизнь. И вкус у нее иногда терпкий, иногда горький, иногда медовый.
И все мы сами — кузнецы своего счастья и своего несчастья. Но что мне особенно понравилось, у режиссера каждый персонаж в отдельности заслужил если не счастье, то хотя бы спокойствие или надежду на лучшее.
Интересны были реакции, поступки, мысли персонажей. Ситуации, в которые авторы героев помещали. Некоторые моменты были одновременно и драматичны, и забавны. Например, история с парнем, отсидевшим за изнасилование, который старается начать новую жизнь на свободе или история с внезапно разбогатевшей девочкой по вызову. Лицо Морица Бляйбтроя в конце. Это надо видеть, это невозможно передать на словах.
«360» — кино из тех, которые не врываются неистово в ваши мысли и чувства, а незаметно прокрадываются в них. Поймала себя на том, что посмотрела его несколько дней назад, а думаю о нем до сих пор. И чем дальше — тем больше. Мне кажется, это кино однозначно не для всех. И смотреть его надо в одиночестве, не торопясь и в довольно особенном настроении.
PS: потрясло присутствие песни группы «Ленинград» в истории про парижского дантиста-мусульманина.
Скриншоты:

Время раздачи: 24/7 - круглосуточно

[Цитировать]



Показать сообщения:    

Текущее время: 06-Дек 11:18

Часовой пояс: UTC + 3


Вы не можете начинать темы
Вы не можете отвечать на сообщения
Вы не можете редактировать свои сообщения
Вы не можете удалять свои сообщения
Вы не можете голосовать в опросах
Вы не можете прикреплять файлы к сообщениям
Вы не можете скачивать файлы

!ВНИМАНИЕ!
Сайт не предоставляет электронные версии произведений, а занимается лишь коллекционированием и каталогизацией ссылок, присылаемых и публикуемых на форуме нашими читателями. Если вы являетесь правообладателем какого-либо представленного материала и не желаете, чтобы ссылка на него находилась в нашем каталоге, свяжитесь с нами, и мы незамедлительно удалим ее. Файлы для обмена на трекере предоставлены пользователями сайта, и администрация не несет ответственности за их содержание. Просьба не заливать файлы, защищенные авторскими правами, а также файлы нелегального содержания!