[ Сегодня идет свободное скачивание без начисления Download ]


Статистика раздачи
Нет
 
   
 
Top  
 
 
-Страх и ненависть в Лас-Вегасе / Fear and Loathing in Las Vegas (1998) BDRip-
Русское название: Страх и ненависть в Лас-Вегасе
Оригинальное название: Fear and Loathing in Las Vegas
Год выпуска: 1998
Страна: США
Жанр: Драма, Комедия--Описание фильма:
Два приятеля едут в Лас-Вегас. Одного из них зовут Рауль Дьюк, он спортивный обозреватель, и в Вегас едет чтобы осветить знаменитую «Минт 400». Второго зовут Доктор Гонзо. Или что-то вроде того. А еще Доктор Гонзо — адвокат, но какая разница? Да и вокруг творится нечто невообразимое. Родную Неваду не узнать. Только специальные препараты могут спасти от всех этих тварей. Нормальным парням вроде наших героев временами даже как-то неуютно в этом хаосе…--Режиссер: Терри Гиллиам
Актеры: Джонни Депп, Бенисио Дель Торо, Тоби Магуайр, Эллен Баркин, Гэри Бьюзи, Кэтрин Хелмонд, Майкл Джитер, Марк Хэрмон, Пенн Джиллетт, Крэйг Бирко
Продолжительность: 01:58:28
Перевод: Профессиональный (многоголосый закадровый), Профессиональный (двухголосый закадровый), Авторский (одноголосый закадровый)
Язык субтитров: Русский, английский
Вид субтитров: Вшитые отключаемые- -Дата мировой премьеры: 15 мая 1998
Дата российской премьеры: 2 мая 2013, «Каравелла DDC»
Видеокодек: MPEG-4 AVC/H.264
Битрейт видео: ~4449 Кбит/сек
Размер кадра: 1280x544
Качество видео: BDRip 720p
Аудиокодек: AC3 , DTS-Аудио #1: Русский ( AC3 / 5.1 / 48 kHz / 448 kbps ) - Профессиональный (многоголосый) - West
Аудио #2: Русский ( AC3 / 5.1 / 48 kHz / 448 kbps ) - Профессиональный (многоголосый) - Tycoon
Аудио #3: Русский ( DTS / 5.1 / 48 kHz / 1510 kbps ) - Профессиональный (двухголосый) - Гланц & Королева
Аудио #4: Русский ( AC3 / 5.1 / 48 kHz / 448 kbps ) - Авторский (одноголосый) - Гаврилов
Аудио #5: Русский ( AC3 / 5.1 / 48 kHz / 448 kbps ) - Авторский (одноголосый) - Живов
Аудио #6: Русский ( AC3 / 5.1 / 48 kHz / 448 kbps ) - Авторский (одноголосый) - Казаков - 1
Аудио #7: Русский ( AC3 / 5.1 / 48 kHz / 448 kbps ) - Авторский (одноголосый) - Казаков - 2
Аудио #8: Английский ( DTS / 5.1 / 48 kHz / 1510 kbps )
-

Mediainfo

Общее
Уникальный идентификатор : 180967409093559803279129909078210864509 (0x88250E2272E12618A4FB9F5C20B7657D)
Полное имя : Страх и ненависть в Лас-Вегасе .1998.BDRip.720p..mkv
Формат : Matroska
Версия формата : Version 2
Размер файла : 8,58 Гбайт
Продолжительность : 1 ч. 58 м.
Общий поток : 10,4 Мбит/сек
Кодирование произвёл : [tRuAVC @ HD Uploaders]Skazhutin
Дата кодирования : UTC 2013-03-31 10:44:52
Программа кодирования : mkvmerge v4.0.0 ('The Stars were mine') сборка от Jun 6 2010 16:18:42
Библиотека кодирования : libebml v1.0.0 + libmatroska v1.0.0
TITLE : Fear and Loathing in Las Vegas (1998) [tRuAVC @ HD Uploaders]
DATE_RELEASED : September 29th 2010
COMMENT : BDRip/x264/AC3/DTS (Source: VC-1 Video / 30861 kbps / 1080p / 23,976 fps / 16:9 / Advanced Profile 3)
Attachment : Yes / Yes
Видео
Идентификатор : 1
Формат : AVC
Формат/Информация : Advanced Video Codec
Профиль формата : High@L4.1
Параметр CABAC формата : Да
Параметр ReFrames формата : 11 кадров
Идентификатор кодека : V_MPEG4/ISO/AVC
Продолжительность : 1 ч. 58 м.
Битрейт : 4449 Кбит/сек
Ширина : 1280 пикселей
Высота : 544 пикселя
Соотношение сторон : 2,35:1
Режим частоты кадров : Постоянный
Частота кадров : 23,976 кадра/сек
Цветовое пространство : YUV
Субдискретизация насыщенности : 4:2:0
Битовая глубина : 8 бит
Тип развёртки : Прогрессивная
Бит/(Пиксели*Кадры) : 0.267
Размер потока : 3,68 Гбайт (43%)
Заголовок : 1280x544 (2.353:1); 4652 Kbps; 23,976 fps; 0,278 bpp
Библиотека кодирования : x264 core 105 r1724 b02df7b
Настройки программы : cabac=1 / ref=11 / deblock=1:-3:-2 / analyse=0x3:0x113 / me=umh / subme=10 / psy=1 / psy_rd=1.05:0.05 / mixed_ref=1 / me_range=32 / chroma_me=1 / trellis=2 / 8x8dct=1 / cqm=0 / deadzone=21,11 / fast_pskip=1 / chroma_qp_offset=-3 / threads=6 / sliced_threads=0 / nr=0 / decimate=1 / interlaced=0 / constrained_intra=0 / bframes=11 / b_pyramid=2 / b_adapt=2 / b_bias=0 / direct=3 / weightb=1 / open_gop=0 / weightp=2 / keyint=250 / keyint_min=23 / scenecut=40 / intra_refresh=0 / rc_lookahead=60 / rc=crf / mbtree=0 / crf=19.0 / qcomp=0.65 / qpmin=10 / qpmax=51 / qpstep=4 / vbv_maxrate=50000 / vbv_bufsize=62500 / crf_max=0.0 / ip_ratio=1.40 / pb_ratio=1.30 / aq=1:1.00 / nal_hrd=none
Язык : English
Default : Нет
Forced : Нет
Коэффициенты матрицы : BT.709
Аудио #1
Идентификатор : 2
Формат : AC-3
Формат/Информация : Audio Coding 3
Расширение режима : CM (complete main)
Параметр Endianness формата : Big
Идентификатор кодека : A_AC3
Продолжительность : 1 ч. 58 м.
Вид битрейта : Постоянный
Битрейт : 448 Кбит/сек
Каналы : 6 каналов
Расположение каналов : Front: L C R, Side: L R, LFE
Частота : 48,0 КГц
Битовая глубина : 16 бит
Метод сжатия : С потерями
Размер потока : 380 Мбайт (4%)
Заголовок : Dolby Digital Audio / 5.1 / 48 kHz / 448 kbps; West
Язык : Russian
Default : Да
Forced : Да
Аудио #2
Идентификатор : 3
Формат : AC-3
Формат/Информация : Audio Coding 3
Расширение режима : CM (complete main)
Параметр Endianness формата : Big
Идентификатор кодека : A_AC3
Продолжительность : 1 ч. 58 м.
Вид битрейта : Постоянный
Битрейт : 448 Кбит/сек
Каналы : 6 каналов
Расположение каналов : Front: L C R, Side: L R, LFE
Частота : 48,0 КГц
Битовая глубина : 16 бит
Метод сжатия : С потерями
Размер потока : 380 Мбайт (4%)
Заголовок : MVO.Tycoon
Язык : Russian
Default : Нет
Forced : Нет
Аудио #3
Идентификатор : 4
Формат : DTS
Формат/Информация : Digital Theater Systems
Идентификатор кодека : A_DTS
Продолжительность : 1 ч. 58 м.
Вид битрейта : Постоянный
Битрейт : 1510 Кбит/сек
Каналы : 6 каналов
Расположение каналов : Front: L C R, Side: L R, LFE
Частота : 48,0 КГц
Битовая глубина : 24 бит
Метод сжатия : С потерями
Размер потока : 1,25 Гбайт (15%)
Заголовок : DVO.Гланц & Королева
Язык : Russian
Default : Нет
Forced : Нет
Аудио #4
Идентификатор : 5
Формат : AC-3
Формат/Информация : Audio Coding 3
Расширение режима : CM (complete main)
Параметр Endianness формата : Big
Идентификатор кодека : A_AC3
Продолжительность : 1 ч. 58 м.
Вид битрейта : Постоянный
Битрейт : 448 Кбит/сек
Каналы : 6 каналов
Расположение каналов : Front: L C R, Side: L R, LFE
Частота : 48,0 КГц
Битовая глубина : 16 бит
Метод сжатия : С потерями
Размер потока : 380 Мбайт (4%)
Заголовок : AVO.Гаврилов
Язык : Russian
Default : Нет
Forced : Нет
Аудио #5
Идентификатор : 6
Формат : AC-3
Формат/Информация : Audio Coding 3
Расширение режима : CM (complete main)
Параметр Endianness формата : Big
Идентификатор кодека : A_AC3
Продолжительность : 1 ч. 58 м.
Вид битрейта : Постоянный
Битрейт : 448 Кбит/сек
Каналы : 6 каналов
Расположение каналов : Front: L C R, Side: L R, LFE
Частота : 48,0 КГц
Битовая глубина : 16 бит
Метод сжатия : С потерями
Размер потока : 380 Мбайт (4%)
Заголовок : AVO.Живов
Язык : Russian
Default : Нет
Forced : Нет
Аудио #6
Идентификатор : 7
Формат : AC-3
Формат/Информация : Audio Coding 3
Расширение режима : CM (complete main)
Параметр Endianness формата : Big
Идентификатор кодека : A_AC3
Продолжительность : 1 ч. 58 м.
Вид битрейта : Постоянный
Битрейт : 448 Кбит/сек
Каналы : 6 каналов
Расположение каналов : Front: L C R, Side: L R, LFE
Частота : 48,0 КГц
Битовая глубина : 16 бит
Метод сжатия : С потерями
Размер потока : 380 Мбайт (4%)
Заголовок : AVO.Казаков-1
Язык : Russian
Default : Нет
Forced : Нет
Аудио #7
Идентификатор : 8
Формат : AC-3
Формат/Информация : Audio Coding 3
Расширение режима : CM (complete main)
Параметр Endianness формата : Big
Идентификатор кодека : A_AC3
Продолжительность : 1 ч. 58 м.
Вид битрейта : Постоянный
Битрейт : 448 Кбит/сек
Каналы : 6 каналов
Расположение каналов : Front: L C R, Side: L R, LFE
Частота : 48,0 КГц
Битовая глубина : 16 бит
Метод сжатия : С потерями
Размер потока : 380 Мбайт (4%)
Заголовок : AVO.Kазаков-2
Язык : Russian
Default : Нет
Forced : Нет
Аудио #8
Идентификатор : 9
Формат : DTS
Формат/Информация : Digital Theater Systems
Идентификатор кодека : A_DTS
Продолжительность : 1 ч. 58 м.
Вид битрейта : Постоянный
Битрейт : 1510 Кбит/сек
Каналы : 6 каналов
Расположение каналов : Front: L C R, Side: L R, LFE
Частота : 48,0 КГц
Битовая глубина : 24 бит
Метод сжатия : С потерями
Размер потока : 1,25 Гбайт (15%)
Заголовок : DTS Audio / 5.1 / 48 kHz / 1509 kbps / 24-bit; Original
Язык : English
Default : Нет
Forced : Нет
Текст #1
Идентификатор : 10
Формат : UTF-8
Идентификатор кодека : S_TEXT/UTF8
Идентификатор кодека/Информация : UTF-8 Plain Text
Язык : Russian
Default : Нет
Forced : Нет
Текст #2
Идентификатор : 11
Формат : UTF-8
Идентификатор кодека : S_TEXT/UTF8
Идентификатор кодека/Информация : UTF-8 Plain Text
Язык : Russian
Default : Нет
Forced : Нет
Текст #3
Идентификатор : 12
Формат : UTF-8
Идентификатор кодека : S_TEXT/UTF8
Идентификатор кодека/Информация : UTF-8 Plain Text
Язык : Russian
Default : Нет
Forced : Нет
Текст #4
Идентификатор : 13
Формат : UTF-8
Идентификатор кодека : S_TEXT/UTF8
Идентификатор кодека/Информация : UTF-8 Plain Text
Язык : Russian
Default : Нет
Forced : Нет
Текст #5
Идентификатор : 14
Формат : UTF-8
Идентификатор кодека : S_TEXT/UTF8
Идентификатор кодека/Информация : UTF-8 Plain Text
Язык : English
Default : Нет
Forced : Нет
Меню
00:00:00.000 : en:When the Drugs Began to Take Hold (Main Titles)
00:05:53.728 : en:24 Hours Ago...
00:10:34.717 : en:30 Minutes to Vegas
00:14:21.235 : en:Madness at the Mint
00:20:49.248 : en:Your Photographer
00:22:39.149 : en:The Sporting Press
00:27:22.724 : en:Stones, Ripped and Twisted
00:31:20.879 : en:The Perfect Drug for Vegas
00:35:24.580 : en:In the Vortex
00:38:54.623 : en:Menacing Vibrations
00:40:05.778 : en:The Woman in the Elevator
00:44:38.425 : en:Humping the American Dream
00:45:52.708 : en:Going Completely Sideways
00:52:23.223 : en:The Acid Wave
00:57:01.751 : en:Horrible Realities
01:01:22.804 : en:The Weasels are Closing In
01:06:12.760 : en:Stuck Inside of Baker
01:08:10.586 : en:The Pigs are Gathering in Vegas
01:12:29.845 : en:The Preternatural Courtship
01:19:37.647 : en:Inside the Possessed Mind
01:23:44.978 : en:The Last of Lucy
01:28:47.405 : en:Too Much Adrenochrome
01:33:06.289 : en:Grim Memories and Bad Flashbacks
01:38:02.126 : en:Welcome to the Happy Place
01:41:11.899 : en:The Sight of the Blade
01:47:03.125 : en:The Hard Way to the Airport
01:49:05.622 : en:One of God's Own Prototypes
01:50:17.402 : en:The Survival Trip
01:51:26.888 : en:Just Another Freak in the Freak Kingdom
01:52:18.022 : en:End Titles
-Скриншоты:




Время раздачи: с 10:00 до 23:00 ежедневно

[Цитировать]



Показать сообщения:    

Текущее время: 10-Дек 06:08

Часовой пояс: UTC + 3


Вы не можете начинать темы
Вы не можете отвечать на сообщения
Вы не можете редактировать свои сообщения
Вы не можете удалять свои сообщения
Вы не можете голосовать в опросах
Вы не можете прикреплять файлы к сообщениям
Вы не можете скачивать файлы

!ВНИМАНИЕ!
Сайт не предоставляет электронные версии произведений, а занимается лишь коллекционированием и каталогизацией ссылок, присылаемых и публикуемых на форуме нашими читателями. Если вы являетесь правообладателем какого-либо представленного материала и не желаете, чтобы ссылка на него находилась в нашем каталоге, свяжитесь с нами, и мы незамедлительно удалим ее. Файлы для обмена на трекере предоставлены пользователями сайта, и администрация не несет ответственности за их содержание. Просьба не заливать файлы, защищенные авторскими правами, а также файлы нелегального содержания!