[ Сегодня идет свободное скачивание без начисления Download ]


Статистика раздачи
Нет
 
   
 
Top  
 
 
Вертикальный предел / Vertical Limit«The Mountain Will Decide.»
Год выпуска: 2000
Страна: США, Германия
Производство: Columbia Pictures Corporation, Global Entertainment Productions GmbH & Company Medien KG, Mountain High Productions
Жанр: Боевик, триллер, приключения
Режиссер: Мартин Кэмпбелл
В ролях: Крис О`Доннелл, Робин Танни, Стюарт Уилсон, Оджи Дэвис, Темура Моррисон, Розан Сет, Алехандро Вальдес-Рочин, Николас Ли, Род Браун, Скотт Гленн, Роберт Тейлор (II), Стив Ле Маркванд, Бен Мендельсон, Изабелла Скорупко, Билл Пэкстон, Эд Вистурс, Дэвид Хеймен, Маммоне Роберт, Николь Виппи, Колин Мой, Йен Болт, Тиффани Де Кастро, Кэмпбелл Кули, Элистэр Браунинг, Жозефин Дэвисон, Тамати Райс, Сэлли Спенсер Харрис
Перевод: Профессиональный (полное дублирование) + Профессиональный (многоголосый, закадровый) + Авторский одноголосый + Оригинал
Субтитры: Русские, Английские
Описание: Группа альпинисстов оказалась погребённой заживо в расщелине у вершины К-2, второй после Эвереста горы мира. На такой высоте им оставалось жить считанные часы. Шестеро отчаянных смельчаков решают подняться на роковую отметку, чтобы вызволить их из ледяной могилы. Но для этого им придётся обогнать свою главную соперницу, которая уже спускается по склонам удушающим холодом и неожиданными лавинами - саму смерть.

Качество: BDRip 720p
Продолжительность: 01:46:31
Формат: MKV
Видео кодек: AVC [email protected]
Аудио кодек: AC3
Видео: 1280 x 688 (1.860), 23.976 fps, ~6499 kbps, 0.300 bit/pixel
Аудио №1: 48 kHz, Audio Coding 3 Dolby Digital, 6 ch (Front: L C R, Side: L R, LFE), ~448 kbps avg, Дубляж
Аудио №2: 48 kHz, Audio Coding 3 Dolby Digital, 6 ch (Front: L C R, Side: L R, LFE), ~448 kbps avg, Многоголосый, закадровый
Аудио №3: 8 kHz, DTS, 6 ch (Front: L C R, Side: L R, LFE), ~755 kbps avg, Авторский одноголосый (Ю. Живов)
Аудио №4: 48 kHz, DTS, 6 ch (Front: L C R, Side: L R, LFE), ~755 kbps avg, Оригинал
Главы: Нет

Media Info

General
Unique ID                      : 188493286863539935869010425137555462952 (0x8DCE7C8E73BC875F8A5B9A7C608E5B28)
Complete name                  : D:\фильмы\Verticaljnij.predel.2000.BDRip.720p.mkv
Format                         : Matroska
Format version                 : Version 1
File size                      : 7.75 GiB
Duration                       : 2h 4mn
Overall bit rate               : 8 909 Kbps
Movie name                     : HDClub
Encoded date                   : UTC 2008-12-12 19:48:32
Writing application            : mkvmerge v2.0.2 ('You're My Flame') built on Feb 21 2007 23:40:55
Writing library                : libebml v0.7.7 + libmatroska v0.8.1
Video
ID                             : 1
Format                         : AVC
Format/Info                    : Advanced Video Codec
Format profile                 : [email protected]
Format settings, CABAC         : Yes
Format settings, ReFrames      : 4 frames
Codec ID                       : V_MPEG4/ISO/AVC
Duration                       : 2h 4mn
Bit rate                       : 6 499 Kbps
Width                          : 1 280 pixels
Height                         : 688 pixels
Display aspect ratio           : 1.860
Frame rate                     : 23.976 fps
Color space                    : YUV
Chroma subsampling             : 4:2:0
Bit depth                      : 8 bits
Scan type                      : Progressive
Bits/(Pixel*Frame)             : 0.308
Stream size                    : 5.50 GiB (71%)
Title                          : HDClub
Writing library                : x264 core 64 r979M 6d4af8d
Encoding settings              : cabac=1 / ref=4 / deblock=1:-3:-3 / analyse=0x1:0x111 / me=umh / subme=6 / psy_rd=1.1:0.0 / brdo=1 / mixed_ref=1 / me_range=16 / chroma_me=1 / trellis=2 / 8x8dct=0 / cqm=0 / deadzone=21,11 / chroma_qp_offset=-2 / threads=6 / nr=0 / decimate=1 / mbaff=0 / bframes=4 / b_pyramid=1 / b_adapt=1 / b_bias=0 / direct=3 / wpredb=1 / bime=1 / keyint=250 / keyint_min=25 / scenecut=40(pre) / rc=2pass / bitrate=6499 / ratetol=1.0 / qcomp=0.60 / qpmin=10 / qpmax=51 / qpstep=4 / cplxblur=20.0 / qblur=0.5 / ip_ratio=1.40 / pb_ratio=1.30 / aq=1:0.80
Language                       : English
Default                        : Yes
Forced                         : No
Audio #1
ID                             : 2
Format                         : AC-3
Format/Info                    : Audio Coding 3
Mode extension                 : CM (complete main)
Codec ID                       : A_AC3
Duration                       : 2h 4mn
Bit rate mode                  : Constant
Bit rate                       : 448 Kbps
Channel(s)                     : 6 channels
Channel positions              : Front: L C R, Side: L R, LFE
Sampling rate                  : 48.0 KHz
Bit depth                      : 16 bits
Compression mode               : Lossy
Stream size                    : 399 MiB (5%)
Title                          : Дубляж
Language                       : Russian
Default                        : Yes
Forced                         : No
Audio #2
ID                             : 3
Format                         : AC-3
Format/Info                    : Audio Coding 3
Mode extension                 : CM (complete main)
Codec ID                       : A_AC3
Duration                       : 2h 4mn
Bit rate mode                  : Constant
Bit rate                       : 448 Kbps
Channel(s)                     : 6 channels
Channel positions              : Front: L C R, Side: L R, LFE
Sampling rate                  : 48.0 KHz
Bit depth                      : 16 bits
Compression mode               : Lossy
Stream size                    : 399 MiB (5%)
Title                          : Многоголосый закадровый
Language                       : Russian
Default                        : No
Forced                         : No
Audio #3
ID                             : 4
Format                         : DTS
Format/Info                    : Digital Theater Systems
Codec ID                       : A_DTS
Duration                       : 2h 4mn
Bit rate mode                  : Constant
Bit rate                       : 755 Kbps
Channel(s)                     : 6 channels
Channel positions              : Front: L C R, Side: L R, LFE
Sampling rate                  : 48.0 KHz
Bit depth                      : 24 bits
Compression mode               : Lossy
Stream size                    : 672 MiB (8%)
Title                          : Одноголосый закадровый - Ю. Живов
Language                       : Russian
Default                        : No
Forced                         : No
Audio #4
ID                             : 5
Format                         : DTS
Format/Info                    : Digital Theater Systems
Codec ID                       : A_DTS
Duration                       : 2h 4mn
Bit rate mode                  : Constant
Bit rate                       : 755 Kbps
Channel(s)                     : 6 channels
Channel positions              : Front: L C R, Side: L R, LFE
Sampling rate                  : 48.0 KHz
Bit depth                      : 24 bits
Compression mode               : Lossy
Stream size                    : 672 MiB (8%)
Title                          : DTS
Language                       : English
Default                        : No
Forced                         : No
Text #1
ID                             : 6
Format                         : UTF-8
Codec ID                       : S_TEXT/UTF8
Codec ID/Info                  : UTF-8 Plain Text
Language                       : Russian
Default                        : Yes
Forced                         : No
Text #2
ID                             : 7
Format                         : UTF-8
Codec ID                       : S_TEXT/UTF8
Codec ID/Info                  : UTF-8 Plain Text
Language                       : English
Default                        : No
Forced                         : No

Скриншоты

[Цитировать]



Показать сообщения:    

Текущее время: 05-Дек 19:38

Часовой пояс: UTC + 3


Вы не можете начинать темы
Вы не можете отвечать на сообщения
Вы не можете редактировать свои сообщения
Вы не можете удалять свои сообщения
Вы не можете голосовать в опросах
Вы не можете прикреплять файлы к сообщениям
Вы не можете скачивать файлы

!ВНИМАНИЕ!
Сайт не предоставляет электронные версии произведений, а занимается лишь коллекционированием и каталогизацией ссылок, присылаемых и публикуемых на форуме нашими читателями. Если вы являетесь правообладателем какого-либо представленного материала и не желаете, чтобы ссылка на него находилась в нашем каталоге, свяжитесь с нами, и мы незамедлительно удалим ее. Файлы для обмена на трекере предоставлены пользователями сайта, и администрация не несет ответственности за их содержание. Просьба не заливать файлы, защищенные авторскими правами, а также файлы нелегального содержания!