[ Сегодня идет свободное скачивание без начисления Download ]


Статистика раздачи
Нет
 
   
 
 
 
 
Штрафник [S01x01-12 из 12] (2016) WEB-DLRip | КПК Информация о фильме
Оригинальное название: Штрафник
Год выпуска: 2016
Жанр: Детектив
Режиссер: Олег Фомин
В ролях: Кирилл Сафонов, Иева Андреевайте, Екатерина Волкова, Максим Дрозд, Анастасия Немец, Константин Милованов, Олег Фомин, Евгений Мундум, Рустам Сагдуллаев, Евгений Куршинский, Дмитрий Куличков, Александр Шам, Михаил Дорожкин, Константин Гацалов, Алеся Гузько, Игорь Литовкин, Наталья Беляева, Алексей Хаустов, Игорь Кулачко, Анна Тараторкина, Владимир Виноградов, Денис Константинов, Александр Лойе, Влад Красавин, Виктория Лукина, Екатерина Мадалинская, Сергей Серов, Вячеслав Щенин, Эдуард Федашко, Роман Гредин, Кирилл Дубровицкий, Лидия Копина, Кирилл Захаров, Егор Новокшонов
О фильме:
СССР, первый послевоенный год - 1946... Капитан Игнат Белов возвращается домой после окончания службы. В поезде он встречает преступника Сыча, которого знает с детства. Много лет назад Сыч с малолетними подельниками втянул маленького Игната в ограбление склада с тушёнкой. Получилось так, что Игнат спас Сыча, попавшего в ловушку, но дальше их дороги разошлись. Сыч рад встрече и предлагает Игнату еще раз рискнуть, но тот отказывается. Заподозрив, что «кореш» что-то задумал, Игнат решает ему помешать. Однако несогласованная инициатива оборачивается для нашего героя арестом. На помощь приходит боевой товарищ капитана – начальник УГРО Тимошенко, он готов помочь Белову, при условии, что тот внедрится и ликвидирует опасную банду Горелого через старого знакомого - Сыча. Взамен Игнат будет реабилитирован и сможет вернуться к нормальной жизни. Игнат соглашается. Они вместе с Тимошенко организуют побег из тюрьмы, чтобы у Игната была «хорошая легенда». Игнат обосновывается в городе, живет в коммуналке, где знакомится с красавицей скрипачкой Виолой и боевой девчонкой Сашкой, которую поначалу принимает за мальчика. Они станут для Игната настоящей семьей. Но прежде, чем это случится, Игнату придется пройти полный опасностей путь, пока он, наконец, не доберется до Горелого. И тут Игната ждет большой сюрприз…

Страна: Россия, Украина
Студия: Star Media
Продолжительность: 12 x ~ 00:23:00
Перевод: Не требуется
Файл
Формат: MP4
Качество: WEB-DLRip | КПК
Видео: MPEG-4 AVC (x264), 640x272, ~500 kbps, 25.000 fps
Аудио: AAC LC, 48.0 KHz, 2 ch, 128 Kbps
Субтитры: Нет
Семпл

Скриншоты

MI

Complete name : E:KinoShtrafnik.S01.2016.AVC.WEB-DLRip.KPK.GFShtrafnik.s01e04.2016.AVC.WEB-DLRip.KPK.GF.mp4
Format : MPEG-4
Codec ID : M4V (isom/iso2/avc1)
File size : 237 MiB
Duration : 52 min 11 s
Overall bit rate mode : Variable
Overall bit rate : 634 kb/s
Writing application : Lavf53.19.0
Video
ID : 1
Format : AVC
Format/Info : Advanced Video Codec
Format profile : High@L4.1
Format settings, CABAC : Yes
Format settings, ReFrames : 8 frames
Codec ID : avc1
Codec ID/Info : Advanced Video Coding
Duration : 52 min 11 s
Bit rate : 500 kb/s
Width : 640 pixels
Height : 272 pixels
Display aspect ratio : 2.35:1
Frame rate mode : Constant
Frame rate : 25.000 FPS
Color space : YUV
Chroma subsampling : 4:2:0
Bit depth : 8 bits
Scan type : Progressive
Bits/(Pixel*Frame) : 0.115
Stream size : 187 MiB (79%)
Writing library : x264 core 146 r2538 121396c
Encoding settings : cabac=1 / ref=8 / deblock=1:-1:-1 / analyse=0x3:0x133 / me=umh / subme=10 / psy=1 / psy_rd=1.00:0.00 / mixed_ref=1 / me_range=24 / chroma_me=1 / trellis=2 / 8x8dct=1 / cqm=0 / deadzone=21,11 / fast_pskip=1 / chroma_qp_offset=-2 / threads=12 / lookahead_threads=2 / sliced_threads=0 / nr=0 / decimate=1 / interlaced=0 / bluray_compat=0 / constrained_intra=0 / bframes=8 / b_pyramid=2 / b_adapt=2 / b_bias=0 / direct=3 / weightb=1 / open_gop=0 / weightp=2 / keyint=250 / keyint_min=126 / scenecut=40 / intra_refresh=0 / rc_lookahead=40 / rc=2pass / mbtree=1 / bitrate=500 / ratetol=1.0 / qcomp=0.60 / qpmin=0 / qpmax=69 / qpstep=4 / cplxblur=20.0 / qblur=0.5 / ip_ratio=1.40 / aq=1:1.00
Menus : 3
Audio
ID : 2
Format : AAC
Format/Info : Advanced Audio Codec
Format profile : LC
Codec ID : 40
Duration : 52 min 11 s
Bit rate mode : Variable
Bit rate : 128 kb/s
Channel(s) : 2 channels
Channel positions : Front: L R
Sampling rate : 48.0 kHz
Frame rate : 46.875 FPS (1024 spf)
Compression mode : Lossy
Stream size : 47.8 MiB (20%)
Default : Yes
Alternate group : 1
Menus : 3
Релиз от:

[Цитировать]



Показать сообщения:    

Текущее время: 19-Дек 07:24

Часовой пояс: UTC + 6


Вы не можете начинать темы
Вы не можете отвечать на сообщения
Вы не можете редактировать свои сообщения
Вы не можете удалять свои сообщения
Вы не можете голосовать в опросах
Вы не можете прикреплять файлы к сообщениям
Вы не можете скачивать файлы

!ВНИМАНИЕ!
Сайт не предоставляет электронные версии произведений, а занимается лишь коллекционированием и каталогизацией ссылок, присылаемых и публикуемых на форуме нашими читателями. Если вы являетесь правообладателем какого-либо представленного материала и не желаете, чтобы ссылка на него находилась в нашем каталоге, свяжитесь с нами, и мы незамедлительно удалим ее. Файлы для обмена на трекере предоставлены пользователями сайта, и администрация не несет ответственности за их содержание. Просьба не заливать файлы, защищенные авторскими правами, а также файлы нелегального содержания!