[ Сегодня идет свободное скачивание без начисления Download ]


Статистика раздачи
Качаю: [ 2 ]
Скачал: [ 4 ]
 
   
 
 
 
 
Звёздный путь: Дискавери / Star Trek: Discovery [01x01-09 из 15] (2017) WEB-DL 720p | P | Название: Звёздный путь: Дискавери
Оригинальное название: Star Trek: Discovery
Год выпуска: 2017
Жанр: Приключения, фантастика
Выпущено: США
Режиссер: Акива Голдсман, Адам Кэйн, Ли Роуз
В ролях: Джейсон Айзекс, Даг Джонс, Шазад Латиф, Сонекуа Мартин-Грин, Молик Панчоли, Энтони Рэпп, Мишель Йео, Кеннет Митчелл, Дэймон Рунян
Описание:
За 10 лет до начала истории, описанной в оригинальном сериале «Звёздный путь», экипаж корабля USS Discovery NCC-1031 отправляется в путешествие, чтобы изучать глубокий космос и открыть новые миры и цивилизации.

Качество: WEBRip 720p (чистый видеоряд)
Видео: 1280x720, 23.976 fps, MPEG-4 AVC ~3000 kbps
Аудио #1: Русский (AC3, 2 ch, 384 Кбит/с)
Перевод: Профессиональный (многоголосый закадровый) (LostFilm)
Аудио #2: Английский (AC3, 6 ch, 384 Кбит/с)
Субтитры: Русские (форсированные на Клингонскую речь), Английские
Продолжительность: 9 х ~00:42:00
Реклама: Полностью отсутствует

MediaInfo:

Общее
Уникальный идентификатор : 238455375830425986765303363081316611596 (0xB364D5BA1E5632B0BD1033D65EEC360C)
Полное имя : D:\Star Trek. Discovery (Season 01) WEBDL 720p GeneralFilm\Star.Trek.Discovery.S01E01.NF.WEBDL.720p.GeneralFilm.mkv
Формат : Matroska
Версия формата : Version 4 / Version 2
Размер файла : 782 Мбайт
Продолжительность : 43 м. 31 с.
Режим общего битрейта : Переменный
Общий поток : 2511 Кбит/сек
Дата кодирования : UTC 2017-10-01 11:04:22
Программа кодирования : mkvmerge v7.7.0 ('Six Voices') 64bit built on Feb 28 2015 23:39:33
Библиотека кодирования : libebml v1.3.1 + libmatroska v1.4.2
Видео
Идентификатор : 1
Формат : AVC
Формат/Информация : Advanced Video Codec
Профиль формата : Main@L3.1
Настройки формата : CABAC / 3 Ref Frames
Параметр CABAC формата : Да
Параметр RefFrames формата : 3 кадра
Идентификатор кодека : V_MPEG4/ISO/AVC
Продолжительность : 43 м. 31 с.
Вид битрейта : Переменный
Битрейт : 1693 Кбит/сек
Номинальный битрейт : 1780 Кбит/сек
Максимальный битрейт : 2670 Кбит/сек
Ширина : 1280 пикселей
Высота : 720 пикселей
Соотношение сторон : 16:9
Режим частоты кадров : Постоянный
Частота кадров : 23,976 (24000/1001) кадра/сек
Цветовое пространство : YUV
Субдискретизация насыщенности : 4:2:0
Битовая глубина : 8 бит
Тип развёртки : Прогрессивная
Бит/(Пиксели*Кадры) : 0.077
Размер потока : 527 Мбайт (67%)
Библиотека кодирования : x264 core 148
Настройки программы : cabac=1 / ref=3 / deblock=1:0:0 / analyse=0x1:0x111 / me=umh / subme=10 / psy=1 / psy_rd=1.00:0.00 / mixed_ref=1 / me_range=24 / chroma_me=1 / trellis=2 / 8x8dct=0 / cqm=0 / deadzone=21,11 / fast_pskip=1 / chroma_qp_offset=-2 / threads=8 / lookahead_threads=1 / sliced_threads=0 / nr=0 / decimate=1 / interlaced=0 / bluray_compat=0 / stitchable=1 / constrained_intra=0 / bframes=2 / b_pyramid=0 / b_adapt=2 / b_bias=0 / direct=3 / weightb=1 / open_gop=0 / weightp=2 / keyint=48 / keyint_min=25 / scenecut=0 / intra_refresh=0 / rc_lookahead=48 / rc=2pass / mbtree=1 / bitrate=1780 / ratetol=1.0 / qcomp=0.50 / qpmin=6 / qpmax=51 / qpstep=4 / cplxblur=20.0 / qblur=0.5 / vbv_maxrate=2670 / vbv_bufsize=3560 / nal_hrd=vbr / filler=0 / ip_ratio=1.40 / aq=1:1.00
Default : Да
Forced : Нет
Аудио #1
Идентификатор : 2
Формат : AC-3
Формат/Информация : Audio Coding 3
Параметр Endianness формата : Big
Идентификатор кодека : A_AC3
Продолжительность : 43 м. 31 с.
Вид битрейта : Постоянный
Битрейт : 384 Кбит/сек
Каналы : 2 канала
Расположение каналов : Front: L R
Частота : 48,0 КГц
Частота кадров : 31,250 кадров/сек (1536 SPF)
Битовая глубина : 16 бит
Метод сжатия : С потерями
Размер потока : 120 Мбайт (15%)
Язык : Russian
ServiceKind/String : Complete Main
Default : Да
Forced : Нет
Аудио #2
Идентификатор : 3
Формат : AC-3
Формат/Информация : Audio Coding 3
Параметр Endianness формата : Big
Идентификатор кодека : A_AC3
Продолжительность : 43 м. 31 с.
Вид битрейта : Постоянный
Битрейт : 384 Кбит/сек
Каналы : 6 каналов
Расположение каналов : Front: L C R, Side: L R, LFE
Частота : 48,0 КГц
Частота кадров : 31,250 кадров/сек (1536 SPF)
Битовая глубина : 16 бит
Метод сжатия : С потерями
Размер потока : 120 Мбайт (15%)
Язык : English
ServiceKind/String : Complete Main
Default : Нет
Forced : Нет
Текст #1
Идентификатор : 4
Формат : UTF-8
Идентификатор кодека : S_TEXT/UTF8
Идентификатор кодека/Информация : UTF-8 Plain Text
Язык : Russian
Default : Да
Forced : Да
Текст #2
Идентификатор : 5
Формат : UTF-8
Идентификатор кодека : S_TEXT/UTF8
Идентификатор кодека/Информация : UTF-8 Plain Text
Заголовок : SDH
Язык : English
Default : Нет
Forced : Нет

Скриншоты

Релиз от:


Последний раз редактировалось: Winchester (2017-11-16 00:35), всего редактировалось 1 раз

[Цитировать]

фильм то хороший есть смысл качать?

[Цитировать]

Отзывы на кинопоиске...

[Цитировать]



Показать сообщения:    

Текущее время: 14-Дек 19:12

Часовой пояс: UTC + 6


Вы не можете начинать темы
Вы не можете отвечать на сообщения
Вы не можете редактировать свои сообщения
Вы не можете удалять свои сообщения
Вы не можете голосовать в опросах
Вы не можете прикреплять файлы к сообщениям
Вы не можете скачивать файлы

!ВНИМАНИЕ!
Сайт не предоставляет электронные версии произведений, а занимается лишь коллекционированием и каталогизацией ссылок, присылаемых и публикуемых на форуме нашими читателями. Если вы являетесь правообладателем какого-либо представленного материала и не желаете, чтобы ссылка на него находилась в нашем каталоге, свяжитесь с нами, и мы незамедлительно удалим ее. Файлы для обмена на трекере предоставлены пользователями сайта, и администрация не несет ответственности за их содержание. Просьба не заливать файлы, защищенные авторскими правами, а также файлы нелегального содержания!