[ Сегодня идет свободное скачивание без начисления Download ]


Статистика раздачи
Скачал: [ 2 ]
 
   
 
 
 
 
Балабол / Одинокий волк Саня [S01x01-08 из 08] (2013) HDTVRip | КПК
Информация о фильме
Оригинальное название: Балабол / Одинокий волк Саня
Год выхода: 2013
Жанр: Иронический детектив
Режиссер: Владимир Мельник (II)
В ролях: Константин Юшкевич, Вадим Андреев, Гоша Куценко, Оксана Сташенко, Вадим Дорофеев, Мария Пирогова, Александр Самойлов, Инга Оболдина, Ирина Низина, Иван Агапов, Карина Разумовская, Алексей Михайлов (II), Тимур Ефременков, Александр Числов, Виктор Конухин, Влад Канопка, Дмитрий Мазуров, Игорь Старосельцев, Дмитрий Блажко, Ольга Дибцева
О фильме:
Каждые две серии иронического детектива «Одинокий волк Саня» – отдельная история, в которой бравый провинциальный опер, «одинокий волк» с несерьезным именем Саня, распутывает безнадежные на взгляд его коллег преступления. Детективная составляющая – основа каждой истории, но внутри сюжета – столкновение характеров героев, их семейные дела, изменения, которые происходят с каждым из них по ходу действия. Зрители увидят, как мужает и превращается из наивного и избалованного юнца в настоящего профессионала стажер Карандышев по прозвищу Кузнечик; как в своих чувствах к бывшей жене разбирается сам Саня; как любовь и внимание отца пытается завоевать дочь опера Маша.

Страна: Россия
Студия: Кинокомпания DT Production
Продолжительность: 8 х ~ 01:40:00
Перевод: Не требуется
Файл
Формат: MP4
Качество: HDTVRip | КПК
Видео: MPEG-4 AVC (x264), 640x360, ~500 kbps, 25.000 fps
Аудио: AAC LC, 48.8 KHz, 2 ch, 128 Kbps
Субтитры: Нет
Семпл

Скриншоты

MI

Complete name : E:KinoBalabol.AVC.KPK.GFBalabol.S01.2013.AVC.HDTVRip.KPK.GFBalabol.s01e05-06.2013.AVC.HDTVRip.KPK.GF.mp4
Format : MPEG-4
Codec ID : M4V (isom/iso2/avc1)
File size : 456 MiB
Duration : 1 h 40 min
Overall bit rate mode : Variable
Overall bit rate : 634 kb/s
Writing application : Lavf53.19.0
Video
ID : 1
Format : AVC
Format/Info : Advanced Video Codec
Format profile : High@L4.1
Format settings, CABAC : Yes
Format settings, ReFrames : 8 frames
Codec ID : avc1
Codec ID/Info : Advanced Video Coding
Duration : 1 h 40 min
Bit rate : 500 kb/s
Width : 640 pixels
Height : 360 pixels
Display aspect ratio : 16:9
Frame rate mode : Constant
Frame rate : 25.000 FPS
Color space : YUV
Chroma subsampling : 4:2:0
Bit depth : 8 bits
Scan type : Progressive
Bits/(Pixel*Frame) : 0.087
Stream size : 360 MiB (79%)
Writing library : x264 core 146 r2538 121396c
Encoding settings : cabac=1 / ref=8 / deblock=1:-1:-1 / analyse=0x3:0x133 / me=umh / subme=10 / psy=1 / psy_rd=1.00:0.00 / mixed_ref=1 / me_range=24 / chroma_me=1 / trellis=2 / 8x8dct=1 / cqm=0 / deadzone=21,11 / fast_pskip=1 / chroma_qp_offset=-2 / threads=12 / lookahead_threads=2 / sliced_threads=0 / nr=0 / decimate=1 / interlaced=0 / bluray_compat=0 / constrained_intra=0 / bframes=8 / b_pyramid=2 / b_adapt=2 / b_bias=0 / direct=3 / weightb=1 / open_gop=0 / weightp=2 / keyint=250 / keyint_min=126 / scenecut=40 / intra_refresh=0 / rc_lookahead=40 / rc=2pass / mbtree=1 / bitrate=500 / ratetol=1.0 / qcomp=0.60 / qpmin=0 / qpmax=69 / qpstep=4 / cplxblur=20.0 / qblur=0.5 / ip_ratio=1.40 / aq=1:1.00
Menus : 3
Audio
ID : 2
Format : AAC
Format/Info : Advanced Audio Codec
Format profile : LC
Codec ID : 40
Duration : 1 h 40 min
Bit rate mode : Variable
Bit rate : 128 kb/s
Channel(s) : 2 channels
Channel positions : Front: L R
Sampling rate : 48.0 kHz
Frame rate : 46.875 FPS (1024 spf)
Compression mode : Lossy
Stream size : 92.1 MiB (20%)
Default : Yes
Alternate group : 1
Menus : 3
Релиз от:

[Цитировать]



Показать сообщения:    

Текущее время: 13-Дек 01:32

Часовой пояс: UTC + 6


Вы не можете начинать темы
Вы не можете отвечать на сообщения
Вы не можете редактировать свои сообщения
Вы не можете удалять свои сообщения
Вы не можете голосовать в опросах
Вы не можете прикреплять файлы к сообщениям
Вы не можете скачивать файлы

!ВНИМАНИЕ!
Сайт не предоставляет электронные версии произведений, а занимается лишь коллекционированием и каталогизацией ссылок, присылаемых и публикуемых на форуме нашими читателями. Если вы являетесь правообладателем какого-либо представленного материала и не желаете, чтобы ссылка на него находилась в нашем каталоге, свяжитесь с нами, и мы незамедлительно удалим ее. Файлы для обмена на трекере предоставлены пользователями сайта, и администрация не несет ответственности за их содержание. Просьба не заливать файлы, защищенные авторскими правами, а также файлы нелегального содержания!