[ Сегодня идет свободное скачивание без начисления Download ]


Статистика раздачи
Нет
 
   
 
 
 
 
Любимцы [S01x01-20 из 20] (2017) WEB-DLRip | КПК Информация о фильме
Оригинальное название: Любимцы
Год выпуска: 2017
Жанр: Комедия
Выпущено: Россия, Пятница
Режиссер: Михаил Жерневский
В ролях: Роман Маякин, Александра Бортич, Михаил Башкатов, Наталья Бардо, Евгения Ярушникова, Вероника Ксёнжкевич, Алексей Ильин, Мария Горбань, Иван Руденко, Сабина Ахмедова, Дмитрий Хоронько, Сергей Годин, Дарья Чаруша, Валерия Куликова, Анфиса Чехова, Влад Лисовец, Ирина Шеянова, Елена Муравьёва
О фильме:
]История о том, как в ветеринарную клинику попадает бывший врач скорой помощи. Он совершенно не подготовлен к общению с необычными пациентами, более того, животные никогда не вызывали в нём особой симпатии. Очень скоро герой понимает, ветеринары – это люди со сверхпрочными нервами, здоровым чувством юмора и умением выкрутиться из любой ситуации. Ведь когда вокруг мохнатые, пернатые и членистоногие пациенты, случиться может всё, что угодно!

Страна: Россия
Студия: Пятница
Продолжительность: 20 x ~ 00:24:00
Перевод: Не требуется
Файл
Формат: MP4
Качество: WEB-DLRip | КПК
Видео: MPEG-4 AVC (x264), 640x360, ~500 kbps, 23.976 fps
Аудио: AAC LC, 48.0 KHz, 2 ch, 128 Kbps
Субтитры: Нет
Семпл

Скриншоты

MI

Complete name : E:KinoLiubimcy.AVC.KPK.GFLiubimcy.S01.2017.AVC.WEB-DLRip.KPK.GFLiubimcy.s01e04.2017.AVC.WEB-DLRip.KPK.GF.mp4
Format : MPEG-4
Codec ID : M4V (isom/iso2/avc1)
File size : 111 MiB
Duration : 24 min 35 s
Overall bit rate mode : Variable
Overall bit rate : 631 kb/s
Writing application : Lavf53.19.0
Video
ID : 1
Format : AVC
Format/Info : Advanced Video Codec
Format profile : High@L4.1
Format settings, CABAC : Yes
Format settings, ReFrames : 8 frames
Codec ID : avc1
Codec ID/Info : Advanced Video Coding
Duration : 24 min 35 s
Bit rate : 500 kb/s
Width : 640 pixels
Height : 360 pixels
Display aspect ratio : 16:9
Frame rate mode : Constant
Frame rate : 23.976 (23976/1000) FPS
Color space : YUV
Chroma subsampling : 4:2:0
Bit depth : 8 bits
Scan type : Progressive
Bits/(Pixel*Frame) : 0.091
Stream size : 87.9 MiB (79%)
Writing library : x264 core 148 r2638 7599210
Encoding settings : cabac=1 / ref=8 / deblock=1:-2:-2 / analyse=0x3:0x133 / me=umh / subme=10 / psy=1 / psy_rd=1.00:0.00 / mixed_ref=1 / me_range=24 / chroma_me=1 / trellis=2 / 8x8dct=1 / cqm=0 / deadzone=21,11 / fast_pskip=1 / chroma_qp_offset=-2 / threads=6 / lookahead_threads=1 / sliced_threads=0 / nr=0 / decimate=0 / interlaced=0 / bluray_compat=0 / constrained_intra=0 / bframes=8 / b_pyramid=2 / b_adapt=2 / b_bias=0 / direct=3 / weightb=1 / open_gop=0 / weightp=2 / keyint=240 / keyint_min=121 / scenecut=40 / intra_refresh=0 / rc_lookahead=40 / rc=2pass / mbtree=1 / bitrate=500 / ratetol=1.0 / qcomp=0.60 / qpmin=0 / qpmax=69 / qpstep=4 / cplxblur=20.0 / qblur=0.5 / ip_ratio=1.40 / aq=1:1.00
Menus : 3
Audio
ID : 2
Format : AAC
Format/Info : Advanced Audio Codec
Format profile : LC
Codec ID : 40
Duration : 24 min 35 s
Bit rate mode : Variable
Bit rate : 128 kb/s
Channel(s) : 2 channels
Channel positions : Front: L R
Sampling rate : 48.0 kHz
Frame rate : 46.875 FPS (1024 spf)
Compression mode : Lossy
Stream size : 22.1 MiB (20%)
Default : Yes
Alternate group : 1
Menus : 3
Релиз от:

[Цитировать]



Показать сообщения:    

Текущее время: 13-Дек 00:51

Часовой пояс: UTC + 6


Вы не можете начинать темы
Вы не можете отвечать на сообщения
Вы не можете редактировать свои сообщения
Вы не можете удалять свои сообщения
Вы не можете голосовать в опросах
Вы не можете прикреплять файлы к сообщениям
Вы не можете скачивать файлы

!ВНИМАНИЕ!
Сайт не предоставляет электронные версии произведений, а занимается лишь коллекционированием и каталогизацией ссылок, присылаемых и публикуемых на форуме нашими читателями. Если вы являетесь правообладателем какого-либо представленного материала и не желаете, чтобы ссылка на него находилась в нашем каталоге, свяжитесь с нами, и мы незамедлительно удалим ее. Файлы для обмена на трекере предоставлены пользователями сайта, и администрация не несет ответственности за их содержание. Просьба не заливать файлы, защищенные авторскими правами, а также файлы нелегального содержания!