[ Сегодня идет свободное скачивание без начисления Download ]


Статистика раздачи
Скачал: [ 6 ]
 
   
 
 
 
 
-Арман / Когда ангелы спят- Информация о фильме:
Hаименование: Арман
Оригинальное наименование: Когда ангелы спят
Произведено: Казахстан
Категория: Мелодрамы, Драмы
Режиссер постановщик: Рашид Сулейменов
В главных ролях: Жулдыз Айдарбекова, Кайрат Нуртас, Тлектес Мейрамов, Елжас Рахимбеков, Шадияр Абдуллаев, Олжас Нурбаев, Дархан Манаков
O фильме: Арман молодая и красивая девушка, живущая прекрасной жизнью. Главная героиня собирается выйти замуж и уже длительное время занимается подготовкой к свадьбе. Ее жениха зовут Курман, и он прекрасный парень. Все идет замечательно и остается дождаться момента, когда наступит долгожданный день. Но судьба решает преподнести ей то, что она точно не ожидала. Арман похищают четверо пьяных парней и насилуют. Это просто ужасно, и она не представляет, как ей пережить эту трагедию. Пытаясь добиться справедливости, она начинает обращаться в соответствующие службы. Но все окружающие люди и ее родственники советуют не делать этого. Эти люди слишком опасны, и лучше постараться забыть то, что произошло. Но сможет ли невинная девушка смириться с происходящей трагедией, или до последнего станет бороться за собственную гордость.
Рейтинг фильма: 6 (— 128)

Файл:
Качество: HD 1080
Видео данные: MPEG- 4, 718 Кбит/с,
Аудио данные: Аудио Русский (MP2, 1 ch, 192 Кбит/с)
Перевод: Оригинал
Продолжительность: 01:26:25-Присутствует реклама!-

MediaInfo:

Общее
Полное имя : C:\Users\User\Desktop\Когда ангелы спят.mp4
Формат : MPEG-4
Профиль формата : Base Media / Version 2
Идентификатор кодека : mp42 (mp41/isom)
Размер файла : 1,70 Гбайт
Продолжительность : 1 ч. 26 м.
Общий поток : 2801 Кбит/сек
Видео
Идентификатор : 1
Формат : AVC
Формат/Информация : Advanced Video Codec
Профиль формата : Baseline@L4
Настройки формата : 1 Ref Frames
Параметр CABAC формата : Нет
Параметр RefFrames формата : 1 кадр
Параметр GOP формата : M=1, N=15
Идентификатор кодека : avc1
Идентификатор кодека/Информация : Advanced Video Coding
Продолжительность : 1 ч. 26 м.
Продолжительность оригинала : 1 ч. 26 м.
Битрейт : 2603 Кбит/сек
Ширина : 1920 пикселей
Высота : 1080 пикселей
Соотношение сторон : 16:9
Режим частоты кадров : Постоянный
Частота кадров : 29,970 (29970/1000) кадров/сек
Цветовое пространство : YUV
Субдискретизация насыщенности : 4:2:0
Битовая глубина : 8 бит
Тип развёртки : Прогрессивная
Бит/(Пиксели*Кадры) : 0.042
Размер потока : 1,58 Гбайт (93%)
Размер потока оригинала : 1,58 Гбайт (93%)
mdhd_Duration : 5218781
Аудио
Идентификатор : 2
Формат : AAC
Формат/Информация : Advanced Audio Codec
Профиль формата : LC
Идентификатор кодека : mp4a-40-2
Продолжительность : 1 ч. 26 м.
Вид битрейта : Постоянный
Битрейт : 192 Кбит/сек
Каналы : 2 канала
Расположение каналов : Front: L R
Частота : 48,0 КГц
Частота кадров : 46,875 кадров/сек (1024 SPF)
Метод сжатия : С потерями
Размер потока : 121 Мбайт (7%)
mdhd_Duration : 5218731

Скриншоты

-


Последний раз редактировалось: Fillm (2018-01-15 16:03), всего редактировалось 4 раз(а)

[Цитировать]

Вот вам раздача для примера https://torrents-club.org/viewtopic.php?t=101406

[Цитировать]

Топик был перенесен из форума Новинки кинопроката 2017 (HD Video) в форум Казахстанское кино
Viktor1952



Показать сообщения:    

Текущее время: 27-Апр 08:28

Часовой пояс: UTC + 6


Вы не можете начинать темы
Вы не можете отвечать на сообщения
Вы не можете редактировать свои сообщения
Вы не можете удалять свои сообщения
Вы не можете голосовать в опросах
Вы не можете прикреплять файлы к сообщениям
Вы не можете скачивать файлы

!ВНИМАНИЕ!
Сайт не предоставляет электронные версии произведений, а занимается лишь коллекционированием и каталогизацией ссылок, присылаемых и публикуемых на форуме нашими читателями. Если вы являетесь правообладателем какого-либо представленного материала и не желаете, чтобы ссылка на него находилась в нашем каталоге, свяжитесь с нами, и мы незамедлительно удалим ее. Файлы для обмена на трекере предоставлены пользователями сайта, и администрация не несет ответственности за их содержание. Просьба не заливать файлы, защищенные авторскими правами, а также файлы нелегального содержания!