[ Сегодня идет свободное скачивание без начисления Download ]


Статистика раздачи
Качаю: [ 1 ]
Скачал: [ 6 ]
 
   
 
 
 
 
Enigma - Voyageur (Limited Edition, Remastered, Neon Orange Translucent) (2018) - Страна-производитель диска: Europe
Издание: Universal Music Group ‎– 5736408
Жанр: New Age, Ambient
Продолжительность: 00:47:23
Кодек: FLAC 2.0
Формат записи: 32/192
Формат раздачи: 24/192
Тип рипа: image+.cue-Треклист:
A1 From East To West
A2 Voyageur
A3 Incognito
A4 Page Of Cups
A5 Boum-Boum
B1 Total Eclipse Of The Moon
B2 Look Of Today
B3 In The Shadow, In The Light
B4 Weightless
B5 The Piano
B6 Following The Sun

Technical info:

Источник оцифровки: realrommy
Код класса состояния винила: Mint
Устройство воспроизведения: Denon DP-21F
Головка звукоснимателя: JVC VICTOR 4MD-1X с иглой 4DT - 1X (NOS)
Предварительный усилитель: Самодельный Ламповый фонокорректор
АЦП: M-Audio ProFire 610
Программа-оцифровщик: iZotope RX5
Обработка: удалено несколько щелчков вручную

Mi:

Общее
Полное имя : G:\Enigma - Voyageur (Limited Edition, Remastered, Neon Orange Translucent) - (2018) - (FLAC)\Enigma - Voyageur A.flac
Формат : FLAC
Формат/Информация : Free Lossless Audio Codec
Размер файла : 983 Мбайт
Продолжительность : 24 м.
Режим общего битрейта : Переменный
Общий поток : 5560 Кбит/сек
Альбом : Voyageur
Трек/Всего : 5
Исполнитель : Enigma
Жанр : Electronic
Дата записи : 2018
Примечание : realrommy Hi-Res by RomkoLPrip
cuesheet : REM GENRE Electronic / REM DATE 2018 / REM COMMENT realrommy Hi-Res by RomkoLPrip / PERFORMER "Enigma" / TITLE "Voyageur" / FILE "Enigma - Voyageur A.flac" WAVE / TRACK 01 AUDIO / TITLE "From East To West" / INDEX 01 00:00:00 / TRACK 02 AUDIO / TITLE "Voyageur" / INDEX 01 04:04:37 / TRACK 03 AUDIO / TITLE "Incognito" / INDEX 01 08:48:00 / TRACK 04 AUDIO / TITLE "Page Of Cups" / INDEX 01 13:11:00 / TRACK 05 AUDIO / TITLE "Boum-Boum" / INDEX 01 20:12:37 / INDEX 02 24:43:00
Аудио
Формат : FLAC
Формат/Информация : Free Lossless Audio Codec
Продолжительность : 24 м.
Вид битрейта : Переменный
Битрейт : 5560 Кбит/сек
Каналы : 2 канала
Частота : 192 КГц
Битовая глубина : 24 бит
Размер потока : 983 Мбайт (100%)
Библиотека кодирования : libFLAC 1.3.0 (UTC 2013-05-26)
Общее
Полное имя : G:\Enigma - Voyageur (Limited Edition, Remastered, Neon Orange Translucent) - (2018) - (FLAC)\Enigma - Voyageur B.flac
Формат : FLAC
Формат/Информация : Free Lossless Audio Codec
Размер файла : 891 Мбайт
Продолжительность : 22 м.
Режим общего битрейта : Переменный
Общий поток : 5497 Кбит/сек
Альбом : Voyageur
Трек/Всего : 6
Исполнитель : Enigma
Жанр : Electronic
Дата записи : 2018
Примечание : realrommy Hi-Res by RomkoLPrip
cuesheet : REM GENRE Electronic / REM DATE 2018 / REM COMMENT realrommy Hi-Res by RomkoLPrip / PERFORMER "Enigma" / TITLE "Voyageur" / FILE "Enigma - Voyageur B.flac" WAVE / TRACK 06 AUDIO / TITLE "Total Eclipse Of The Moon" / INDEX 01 00:00:00 / TRACK 07 AUDIO / TITLE "Look Of Today" / INDEX 01 02:13:00 / TRACK 08 AUDIO / TITLE "In The Shadow, In The Light" / INDEX 01 06:00:00 / TRACK 09 AUDIO / TITLE "Weightless" / INDEX 01 11:36:00 / TRACK 10 AUDIO / TITLE "The Piano" / INDEX 01 13:51:00 / TRACK 11 AUDIO / TITLE "Following The Sun" / INDEX 01 16:52:00 / INDEX 02 22:40:00
Аудио
Формат : FLAC
Формат/Информация : Free Lossless Audio Codec
Продолжительность : 22 м.
Вид битрейта : Переменный
Битрейт : 5497 Кбит/сек
Каналы : 2 канала
Частота : 192 КГц
Битовая глубина : 24 бит
Размер потока : 891 Мбайт (100%)
Библиотека кодирования : libFLAC 1.3.0 (UTC 2013-05-26)

Спектр,АЧХ,Уровень записи:



Динамический диапазон:

foobar2000 1.3.13 / Dynamic Range Meter 1.1.1
log date: 2018-08-11 11:45:36
--------------------------------------------------------------------------------
Analyzed: Enigma / Voyageur
--------------------------------------------------------------------------------
DR Peak RMS Duration Track
--------------------------------------------------------------------------------
DR12 -0.13 dB -14.54 dB 4:04 01-From East To West
DR11 -0.62 dB -13.64 dB 4:44 02-Voyageur
DR12 -0.44 dB -15.18 dB 4:23 03-Incognito
DR14 -1.42 dB -18.89 dB 7:01 04-Page Of Cups
DR12 -0.83 dB -15.50 dB 4:31 05-Boum-Boum
DR11 -2.05 dB -17.58 dB 2:13 06-Total Eclipse Of The Moon
DR11 -0.20 dB -13.63 dB 3:47 07-Look Of Today
DR13 -2.32 dB -18.27 dB 5:36 08-In The Shadow, In The Light
DR14 -4.40 dB -22.20 dB 2:15 09-Weightless
DR12 -4.52 dB -21.02 dB 3:01 10-The Piano
DR11 -1.32 dB -16.50 dB 5:48 11-Following The Sun
--------------------------------------------------------------------------------
Number of tracks: 11
Official DR value: DR12
Samplerate: 192000 Hz
Channels: 2
Bits per sample: 32
Bitrate: 12288 kbps
Codec: PCM (floating-point)
================================================================================

Яблоки:

[Цитировать]



Показать сообщения:    

Текущее время: 16-Дек 11:19

Часовой пояс: UTC + 6


Вы не можете начинать темы
Вы не можете отвечать на сообщения
Вы не можете редактировать свои сообщения
Вы не можете удалять свои сообщения
Вы не можете голосовать в опросах
Вы не можете прикреплять файлы к сообщениям
Вы не можете скачивать файлы

!ВНИМАНИЕ!
Сайт не предоставляет электронные версии произведений, а занимается лишь коллекционированием и каталогизацией ссылок, присылаемых и публикуемых на форуме нашими читателями. Если вы являетесь правообладателем какого-либо представленного материала и не желаете, чтобы ссылка на него находилась в нашем каталоге, свяжитесь с нами, и мы незамедлительно удалим ее. Файлы для обмена на трекере предоставлены пользователями сайта, и администрация не несет ответственности за их содержание. Просьба не заливать файлы, защищенные авторскими правами, а также файлы нелегального содержания!