[ Сегодня идет свободное скачивание без начисления Download ]


Статистика раздачи
Качаю: [ 1 ]
Скачал: [ 6 ]
 
   
 
 
 
 
Enigma - MCMXC A.D. (2018) (Limited Edition, Remastered,Red Translucent)- Страна-производитель диска: Europe
Издание: Universal Music Group ‎– 5737231
Жанр: Medieval, Ambient, Abstract, New Age
Продолжительность: 00:40:14
Кодек: FLAC 2.0
Формат записи: 32/192
Формат раздачи: 24/192
Тип рипа: image+.cue-Треклист:
A1 The Voice Of Enigma
Principles Of Lust
A2 A/ Sadeness
A2 B/ Find Love
A2 C/ Sadeness (Reprise)
A3 Callas Went Away
B1 Mea Culpa
B2 The Voice & The Snake
B3 Knocking On Forbidden Doors
Back To The Rivers Of Belief
B4 A/ Way To Eternity
B4 B/ Hallelujah
B4 C/ The Rivers Of Belief

Доп. инфа:

MCMXC A.D. — дебютный и самый популярный альбом проекта Enigma, вышедший в 1990 году. Достигнув позиции № 1 в 41 стране, он собрал 57 платиновых наград, включая тройную платину в США, где он оставался в рейтинге альбомов Billboard 200 в течение пяти лет.
Лимитированное переиздание сенсационного выдающегося и суперуспешного альбома на красном 180-граммовом виниле в подарочном оформлении и специальном артворке, пресс на легендарной Oprimal Media.
Однозначным хитом стал первый сингл Sadeness (Part I), прежде всего благодаря удачной комбинации григорианских песнопений и звуков флейты ( яп. "сякухати"). Альбом содержал также последующие, не менее популярные синглы Mea Culpa (Part II), Principles of Lust и The Rivers of Belief. Он был задуман как одна непрерывная композиция, поэтому в альбоме постоянно появляются схожие мотивы, григорианские песнопения и вокал Сандры Крету. Кроме того, изменения тона звучат схоже во всех композициях, два трека («Principles of Lust» и «Back to the Rivers of Belief») имеют одни и те же ударные и альбом заканчивается той же мелодией, что и начинается.
Мировые продажи: 14 млн (1995 г.). Оценочные продажи: 25 млн.
Записан: A.R.T. Studios, Ibiza

Technical info:

Источник оцифровки: realrommy
Код класса состояния винила: Mint
Устройство воспроизведения: Denon DP-21F
Головка звукоснимателя: JVC VICTOR 4MD-1X с иглой 4DT - 1X (NOS)
Предварительный усилитель: Самодельный Ламповый фонокорректор
АЦП: M-Audio ProFire 610
Программа-оцифровщик: iZotope RX5
Обработка: удалено несколько щелчков вручную

Mi:

Общее
Полное имя : G:\Enigma - MCMXC A.D - (2018) - (FLAC)\Enigma - MCMXC A.D A.flac
Формат : FLAC
Формат/Информация : Free Lossless Audio Codec
Размер файла : 743 Мбайт
Продолжительность : 18 м.
Режим общего битрейта : Переменный
Общий поток : 5605 Кбит/сек
Альбом : MCMXC A.D.
Трек/Всего : 5
Исполнитель : Enigma
Жанр : Electronic, Classical
Дата записи : 2018
Примечание : realrommy Hi-Res by RomkoLPrip
cuesheet : REM GENRE Electronic, Classical / REM DATE 2018 / REM COMMENT realrommy Hi-Res by RomkoLPrip / PERFORMER "Enigma" / TITLE "MCMXC A.D." / FILE "Enigma - MCMXC A.D A.flac" WAVE / TRACK 01 AUDIO / TITLE "The Voice Of Enigma" / INDEX 01 00:00:00 / TRACK 02 AUDIO / TITLE "Principles Of Lust (Sadeness)" / INDEX 01 02:20:00 / TRACK 03 AUDIO / TITLE "Principles Of Lust (Find Love)" / INDEX 01 06:24:00 / TRACK 04 AUDIO / TITLE "Principles Of Lust (Sadeness (Reprise))" / INDEX 01 11:14:00 / TRACK 05 AUDIO / TITLE "Callas Went Away" / INDEX 01 14:02:00 / INDEX 02 18:32:00
Аудио
Формат : FLAC
Формат/Информация : Free Lossless Audio Codec
Продолжительность : 18 м.
Вид битрейта : Переменный
Битрейт : 5605 Кбит/сек
Каналы : 2 канала
Частота : 192 КГц
Битовая глубина : 24 бит
Размер потока : 743 Мбайт (100%)
Библиотека кодирования : libFLAC 1.3.0 (UTC 2013-05-26)
Общее
Полное имя : G:\Enigma - MCMXC A.D - (2018) - (FLAC)\Enigma - MCMXC A.D B.flac
Формат : FLAC
Формат/Информация : Free Lossless Audio Codec
Размер файла : 868 Мбайт
Продолжительность : 21 м.
Режим общего битрейта : Переменный
Общий поток : 5595 Кбит/сек
Альбом : MCMXC A.D.
Трек/Всего : 6
Исполнитель : Enigma
Жанр : Electronic, Classical
Дата записи : 2018
Примечание : realrommy Hi-Res by RomkoLPrip
cuesheet : REM GENRE Electronic, Classical / REM DATE 2018 / REM COMMENT realrommy Hi-Res by RomkoLPrip / PERFORMER "Enigma" / TITLE "MCMXC A.D." / FILE "Enigma - MCMXC A.D B.flac" WAVE / TRACK 06 AUDIO / TITLE "Mea Culpa" / INDEX 01 00:00:00 / TRACK 07 AUDIO / TITLE "The Voice & The Snake" / INDEX 01 05:02:00 / TRACK 08 AUDIO / TITLE "Knocking On Forbidden Doors" / INDEX 01 06:43:00 / TRACK 09 AUDIO / TITLE "Back To The Rivers Of Belief (Way To Eternity)" / INDEX 01 11:06:00 / TRACK 10 AUDIO / TITLE "Back To The Rivers Of Belief (Hallelujah)" / INDEX 01 13:27:00 / TRACK 11 AUDIO / TITLE "Back To The Rivers Of Belief (The Rivers Of Belief)" / INDEX 01 17:42:00 / INDEX 02 21:42:00
Аудио
Формат : FLAC
Формат/Информация : Free Lossless Audio Codec
Продолжительность : 21 м.
Вид битрейта : Переменный
Битрейт : 5595 Кбит/сек
Каналы : 2 канала
Частота : 192 КГц
Битовая глубина : 24 бит
Размер потока : 868 Мбайт (100%)
Библиотека кодирования : libFLAC 1.3.0 (UTC 2013-05-26)

Спектр,АЧХ,Уровень записи:



Динамический диапазон

foobar2000 1.3.13 / Dynamic Range Meter 1.1.1
log date: 2018-08-23 20:49:25
--------------------------------------------------------------------------------
Analyzed: Enigma / MCMXC A.D.
--------------------------------------------------------------------------------
DR Peak RMS Duration Track
--------------------------------------------------------------------------------
DR12 -9.88 dB -25.05 dB 2:20 01-The Voice Of Enigma
DR12 -0.40 dB -14.54 dB 4:04 02-Principles Of Lust (Sadeness)
DR13 -1.74 dB -18.16 dB 4:50 03-Principles Of Lust (Find Love)
DR12 -0.79 dB -15.10 dB 2:48 04-Principles Of Lust (Sadeness (Reprise))
DR12 -1.84 dB -17.64 dB 4:30 05-Callas Went Away
DR11 -0.26 dB -13.58 dB 5:02 06-Mea Culpa
DR12 -4.56 dB -22.56 dB 1:41 07-The Voice & The Snake
DR12 -0.29 dB -16.28 dB 4:23 08-Knocking On Forbidden Doors
DR13 -12.48 dB -28.94 dB 2:21 09-Back To The Rivers Of Belief (Way To Eternity)
DR13 -1.86 dB -15.87 dB 4:15 10-Back To The Rivers Of Belief (Hallelujah)
DR11 -0.73 dB -14.91 dB 4:00 11-Back To The Rivers Of Belief (The Rivers Of Belief)
--------------------------------------------------------------------------------
Number of tracks: 11
Official DR value: DR12
Samplerate: 192000 Hz
Channels: 2
Bits per sample: 32
Bitrate: 12288 kbps
Codec: PCM (floating-point)
================================================================================

Яблоки:

[Цитировать]



Показать сообщения:    

Текущее время: 17-Дек 17:57

Часовой пояс: UTC + 6


Вы не можете начинать темы
Вы не можете отвечать на сообщения
Вы не можете редактировать свои сообщения
Вы не можете удалять свои сообщения
Вы не можете голосовать в опросах
Вы не можете прикреплять файлы к сообщениям
Вы не можете скачивать файлы

!ВНИМАНИЕ!
Сайт не предоставляет электронные версии произведений, а занимается лишь коллекционированием и каталогизацией ссылок, присылаемых и публикуемых на форуме нашими читателями. Если вы являетесь правообладателем какого-либо представленного материала и не желаете, чтобы ссылка на него находилась в нашем каталоге, свяжитесь с нами, и мы незамедлительно удалим ее. Файлы для обмена на трекере предоставлены пользователями сайта, и администрация не несет ответственности за их содержание. Просьба не заливать файлы, защищенные авторскими правами, а также файлы нелегального содержания!