[ Сегодня идет свободное скачивание без начисления Download ]


Статистика раздачи
Качаю: [ 2 ]
Скачал: [ 3 ]
 
   
 
 
 
 
Enigma - Love Sensuality Devotion (The Greatest Hits) (2018) - Страна-производитель диска: Europe
Издание: Universal Music Group ‎– 5736528
Жанр: New Age, Ambient, Downtempo
Продолжительность: 01:16:20
Кодек: FLAC 2.0
Формат записи: 32/192
Формат раздачи: 24/192
Тип рипа: image+.cue-Треклист:
A1 The Landing
A2 Turn Around
A3 Gravity Of Love
A4 T.N.T For The Brain
A5 Modern Crusaders
B1 Shadows In Silence
B2 Return To Innocence
B3 I Love You...I'll Kill You
B4 Principles Of Lust
C1 Sadeness (Part 1)
C2 Silence Must Be Heard
C3 Smell Of Desire
C4 Mea Culpa
D1 Push The Limits
D2 Beyond The Invisible
D3 Age Of Loneliness
D4 Morphing Thru Time
D5 The Cross Of Changes

Technical info:

Источник оцифровки: realrommy
Код класса состояния винила: Mint
Устройство воспроизведения: Denon DP-21F
Головка звукоснимателя: JVC VICTOR 4MD-1X с иглой 4DT - 1X (NOS)
Предварительный усилитель: Sansui AU X-711
АЦП: M-Audio ProFire 610
Программа-оцифровщик: iZotope RX5
Обработка: без обработки

Mi:

Общее
Полное имя : G:\Enigma - Love Sensuality Devotion (The Greatest Hits) - (2018) - (FLAC)\Enigma - Love Sensuality Devotion A.flac
Формат : FLAC
Формат/Информация : Free Lossless Audio Codec
Размер файла : 669 Мбайт
Продолжительность : 18 м.
Режим общего битрейта : Переменный
Общий поток : 5162 Кбит/сек
Альбом : Love Sensuality Devotion (The Greatest Hits)
Трек/Всего : 5
Исполнитель : Enigma
Жанр : Electronic
Дата записи : 2018
Примечание : realrommy Hi-Res by RomkoLPrip
cuesheet : REM GENRE Electronic / REM DATE 2018 / REM COMMENT realrommy Hi-Res by RomkoLPrip / PERFORMER "Enigma" / TITLE "Love Sensuality Devotion (The Greatest Hits)" / FILE "Enigma - Love Sensuality Devotion A.flac" WAVE / TRACK 01 AUDIO / TITLE "The Landing" / INDEX 01 00:00:00 / TRACK 02 AUDIO / TITLE "Turn Around" / INDEX 01 01:04:00 / TRACK 03 AUDIO / TITLE "Gravity Of Love" / INDEX 01 04:56:00 / TRACK 04 AUDIO / TITLE "T.N.T For The Brain" / INDEX 01 08:54:00 / TRACK 05 AUDIO / TITLE "Modern Crusaders" / INDEX 01 14:12:00 / INDEX 02 18:07:00
Аудио
Формат : FLAC
Формат/Информация : Free Lossless Audio Codec
Продолжительность : 18 м.
Вид битрейта : Переменный
Битрейт : 5162 Кбит/сек
Каналы : 2 канала
Частота : 192 КГц
Битовая глубина : 24 бит
Размер потока : 669 Мбайт (100%)
Библиотека кодирования : libFLAC 1.3.0 (UTC 2013-05-26)
Общее
Полное имя : G:\Enigma - Love Sensuality Devotion (The Greatest Hits) - (2018) - (FLAC)\Enigma - Love Sensuality Devotion B.flac
Формат : FLAC
Формат/Информация : Free Lossless Audio Codec
Размер файла : 733 Мбайт
Продолжительность : 19 м.
Режим общего битрейта : Переменный
Общий поток : 5195 Кбит/сек
Альбом : Love Sensuality Devotion (The Greatest Hits)
Трек/Всего : 4
Исполнитель : Enigma
Жанр : Electronic
Дата записи : 2018
Примечание : realrommy Hi-Res by RomkoLPrip
cuesheet : REM GENRE Electronic / REM DATE 2018 / REM COMMENT realrommy Hi-Res by RomkoLPrip / PERFORMER "Enigma" / TITLE "Love Sensuality Devotion (The Greatest Hits)" / FILE "Enigma - Love Sensuality Devotion B.flac" WAVE / TRACK 06 AUDIO / TITLE "Shadows In Silence" / INDEX 01 00:00:00 / TRACK 07 AUDIO / TITLE "Return To Innocence" / INDEX 01 04:19:00 / TRACK 08 AUDIO / TITLE "I Love You...I'll Kill You" / INDEX 01 08:34:00 / TRACK 09 AUDIO / TITLE "Principles Of Lust" / INDEX 01 16:36:12 / INDEX 02 19:43:00
Аудио
Формат : FLAC
Формат/Информация : Free Lossless Audio Codec
Продолжительность : 19 м.
Вид битрейта : Переменный
Битрейт : 5195 Кбит/сек
Каналы : 2 канала
Частота : 192 КГц
Битовая глубина : 24 бит
Размер потока : 733 Мбайт (100%)
Библиотека кодирования : libFLAC 1.3.0 (UTC 2013-05-26)
Общее
Полное имя : G:\Enigma - Love Sensuality Devotion (The Greatest Hits) - (2018) - (FLAC)\Enigma - Love Sensuality Devotion C.flac
Формат : FLAC
Формат/Информация : Free Lossless Audio Codec
Размер файла : 669 Мбайт
Продолжительность : 18 м.
Режим общего битрейта : Переменный
Общий поток : 5194 Кбит/сек
Альбом : Love Sensuality Devotion (The Greatest Hits)
Трек/Всего : 4
Исполнитель : Enigma
Жанр : Electronic
Дата записи : 2018
Примечание : realrommy Hi-Res by RomkoLPrip
cuesheet : REM GENRE Electronic / REM DATE 2018 / REM COMMENT realrommy Hi-Res by RomkoLPrip / PERFORMER "Enigma" / TITLE "Love Sensuality Devotion (The Greatest Hits)" / FILE "Enigma - Love Sensuality Devotion C.flac" WAVE / TRACK 10 AUDIO / TITLE "Sadeness (Part 1)" / INDEX 01 00:00:00 / TRACK 11 AUDIO / TITLE "Silence Must Be Heard" / INDEX 01 04:15:00 / TRACK 12 AUDIO / TITLE "Smell Of Desire" / INDEX 01 09:02:00 / TRACK 13 AUDIO / TITLE "Mea Culpa" / INDEX 01 13:36:37 / INDEX 02 18:01:00
Аудио
Формат : FLAC
Формат/Информация : Free Lossless Audio Codec
Продолжительность : 18 м.
Вид битрейта : Переменный
Битрейт : 5194 Кбит/сек
Каналы : 2 канала
Частота : 192 КГц
Битовая глубина : 24 бит
Размер потока : 669 Мбайт (100%)
Библиотека кодирования : libFLAC 1.3.0 (UTC 2013-05-26)
Общее
Полное имя : G:\Enigma - Love Sensuality Devotion (The Greatest Hits) - (2018) - (FLAC)\Enigma - Love Sensuality Devotion D.flac
Формат : FLAC
Формат/Информация : Free Lossless Audio Codec
Размер файла : 763 Мбайт
Продолжительность : 20 м.
Режим общего битрейта : Переменный
Общий поток : 5207 Кбит/сек
Альбом : Love Sensuality Devotion (The Greatest Hits)
Трек/Всего : 5
Исполнитель : Enigma
Жанр : Electronic
Дата записи : 2018
Примечание : realrommy Hi-Res by RomkoLPrip
cuesheet : REM GENRE Electronic / REM DATE 2018 / REM COMMENT realrommy Hi-Res by RomkoLPrip / PERFORMER "Enigma" / TITLE "Love Sensuality Devotion (The Greatest Hits)" / FILE "Enigma - Love Sensuality Devotion D.flac" WAVE / TRACK 14 AUDIO / TITLE "Push The Limits" / INDEX 01 00:00:00 / TRACK 15 AUDIO / TITLE "Beyond The Invisible" / INDEX 01 03:50:00 / TRACK 16 AUDIO / TITLE "Age Of Loneliness" / INDEX 01 08:41:37 / TRACK 17 AUDIO / TITLE "Morphing Thru Time" / INDEX 01 12:44:32 / TRACK 18 AUDIO / TITLE "The Cross Of Changes" / INDEX 01 18:13:59 / INDEX 02 20:29:00
Аудио
Формат : FLAC
Формат/Информация : Free Lossless Audio Codec
Продолжительность : 20 м.
Вид битрейта : Переменный
Битрейт : 5206 Кбит/сек
Каналы : 2 канала
Частота : 192 КГц
Битовая глубина : 24 бит
Размер потока : 763 Мбайт (100%)
Библиотека кодирования : libFLAC 1.3.0 (UTC 2013-05-26)

Спектр:

АЧХ:

Уровень записи:

Яблоки:

[Цитировать]



Показать сообщения:    

Текущее время: 17-Дек 17:36

Часовой пояс: UTC + 6


Вы не можете начинать темы
Вы не можете отвечать на сообщения
Вы не можете редактировать свои сообщения
Вы не можете удалять свои сообщения
Вы не можете голосовать в опросах
Вы не можете прикреплять файлы к сообщениям
Вы не можете скачивать файлы

!ВНИМАНИЕ!
Сайт не предоставляет электронные версии произведений, а занимается лишь коллекционированием и каталогизацией ссылок, присылаемых и публикуемых на форуме нашими читателями. Если вы являетесь правообладателем какого-либо представленного материала и не желаете, чтобы ссылка на него находилась в нашем каталоге, свяжитесь с нами, и мы незамедлительно удалим ее. Файлы для обмена на трекере предоставлены пользователями сайта, и администрация не несет ответственности за их содержание. Просьба не заливать файлы, защищенные авторскими правами, а также файлы нелегального содержания!