[ Сегодня идет свободное скачивание без начисления Download ]


Статистика раздачи
Скачал: [ 1 ]
 
   
 
 
 
 
Рыбалка нового поколения (Охота на сазана) (2016) WEBRip - Производство: Россия
Жанр: Телепередача
Участники: Сергей Попов
Описание:
Видеосюжет снят для иллюстрированного альбома о современной рыбалке «Next Generation Fishing - Рыбалка нового поколения». Фильм посвящен ловли дикого сазана, как один из самых увлекательных и творческих видов карпфишинга, в большом диком водоеме.
Продолжительность: 01:48:51
Качество видео: WEBRip Sample
Видео: Xvid, 720x576, ~2165 Kbps
Аудио: MP3, 2 ch, 256 Kbps, CBR

Тех. инфо

Общее
Полное имя : E:\Next Generation Fishing(carp on hunting)_[NNMClub].avi
Формат : AVI
Формат/Информация : Audio Video Interleave
Размер файла : 1,85 Гбайт
Продолжительность : 1 ч. 48 м.
Общий поток : 2434 Кбит/сек
Видео
Идентификатор : 0
Формат : xvid
Идентификатор кодека : xvid
Продолжительность : 1 ч. 48 м.
Битрейт : 2165 Кбит/сек
Ширина : 720 пикселей
Высота : 576 пикселей
Соотношение сторон : 5:4
Частота кадров : 25,000 кадров/сек
Стандарт вещания : PAL
Тип развёртки : Прогрессивная
Бит/(Пиксели*Кадры) : 0.209
Размер потока : 1,65 Гбайт (89%)
Аудио
Идентификатор : 1
Формат : MPEG Audio
Версия формата : Version 1
Профиль формата : Layer 3
Режим : Joint stereo
Расширение режима : MS Stereo
Идентификатор кодека : 55
Идентификатор кодека/Подсказка : MP3
Продолжительность : 1 ч. 48 м.
Вид битрейта : Постоянный
Битрейт : 256 Кбит/сек
Каналы : 2 канала
Частота : 44,1 КГц
Метод сжатия : С потерями
Размер потока : 199 Мбайт (11%)
Выравнивание : Соединение по промежуткам
Продолжительность промежутка : 26 мс. (0,65 видеокадр)
Время предзагрузки промежутка : 26 мс.

Дополнительные скриншоты:

Скриншоты:

[Цитировать]



Показать сообщения:    

Текущее время: 22-Сен 01:23

Часовой пояс: UTC + 6


Вы не можете начинать темы
Вы не можете отвечать на сообщения
Вы не можете редактировать свои сообщения
Вы не можете удалять свои сообщения
Вы не можете голосовать в опросах
Вы не можете прикреплять файлы к сообщениям
Вы не можете скачивать файлы

!ВНИМАНИЕ!
Сайт не предоставляет электронные версии произведений, а занимается лишь коллекционированием и каталогизацией ссылок, присылаемых и публикуемых на форуме нашими читателями. Если вы являетесь правообладателем какого-либо представленного материала и не желаете, чтобы ссылка на него находилась в нашем каталоге, свяжитесь с нами, и мы незамедлительно удалим ее. Файлы для обмена на трекере предоставлены пользователями сайта, и администрация не несет ответственности за их содержание. Просьба не заливать файлы, защищенные авторскими правами, а также файлы нелегального содержания!