[ Сегодня идет свободное скачивание без начисления Download ]


Статистика раздачи
Нет
 
   
 
 
 
 
Последний рейд / The Missing (2003) Информация о фильме
Название: Последний рейд
Оригинальное название: The Missing
Год выхода: 2003
Жанр: Триллер, приключения, вестерн
Режиссер: Рон Ховард
В ролях: Кейт Бланшетт, Дженна Бойд, Ивэн Рэйчел Вуд, Томми Ли Джонс, Вэл Килмер, Эрик Швайг, Аарон Экхарт, Серджо Калдерон, Стив Ривис, Джэй Таваре, Рэй МакКиннон, Макс Перлич, Дерил Дж. Лухан, Мэттью Э. Монтойя, Джаддсон Кит Линн, Элизабет Мосс, Скарлетт МакАлистер, Анджелина Торрес, Дебора Мартинес, Клинт Ховард, Рэнс Ховард, Аррон Шиверс, Дэвид Мидфандер, Пол Скаллан, Джеймс Тарватер, Дэвид Гарвер, Рамон Фрэнк, Тоби Холгуин, Эдди Дж. Фернандес, Джейсон Рейнс-Родригез, Род Рондо, Элвин Уильям `Дач` Лунак, Джерри Кинг, Том Берто, Ричард Барела, Крис Талли
О фильме:
Дикий Запад, 1886 год. Лекарь и мать-одиночка Мэгги Гилкесон живет в небольшом поселке и давно забыла о своем отце - тот много лет назад бросил семью и ушел жить с апачами. Но теперь только он может помочь несчастной женщине, у которой бандиты, возглавляемые безумным шаманом, украли старшую дочь, чтобы продать ее в рабство по другую сторону границы.

Страна: США, Daniel Ostroff Productions, Imagine Entertainment, Revolution Studios
Продолжительность: 02:17:28
Перевод: Профессиональный многоголосый закадровый (ВидеоСервис).
Субтитры: Нет
Файл
Кодек: XvID
Качество: WEBRip [исх-BLUEBIRD]
Видео: XviD 73, ~1050 Кбит/с, 720x304, 23.976 Кадр/с
Звук: AC3 / 6ch / 48 kHz / 448 kbps

Дополнительно

За звуковые дорожки спасибо koharubiyori
Присутствует Английский хардсаб на иноязычную речь

M/I

General
Complete name : D:Последний рейд.(2003).WEBRIP.[-=DoMiNo=-].avi
Format : AVI
Format/Info : Audio Video Interleave
File size : 1.44 GiB
Duration : 2 h 17 min
Overall bit rate : 1 507 kb/s
Writing library : VirtualDub build 35491/release
Video
ID : 0
Format : MPEG-4 Visual
Format profile : Advanced Simple@L5
Format settings, BVOP : 2
Format settings, QPel : No
Format settings, GMC : No warppoints
Format settings, Matrix : Custom
Muxing mode : Packed bitstream
Codec ID : XVID
Codec ID/Hint : XviD
Duration : 2 h 17 min
Bit rate : 1 050 kb/s
Width : 720 pixels
Height : 304 pixels
Display aspect ratio : 2.35:1
Frame rate : 23.976 (24000/1001) FPS
Color space : YUV
Chroma subsampling : 4:2:0
Bit depth : 8 bits
Scan type : Progressive
Compression mode : Lossy
Bits/(Pixel*Frame) : 0.200
Stream size : 1.00 GiB (70%)
Writing library : XviD 73
Audio
ID : 1
Format : AC-3
Format/Info : Audio Coding 3
Mode extension : CM (complete main)
Format settings, Endianness : Big
Codec ID : 2000
Duration : 2 h 16 min
Bit rate mode : Constant
Bit rate : 448 kb/s
Channel(s) : 6 channels
Channel positions : Front: L C R, Side: L R, LFE
Sampling rate : 48.0 kHz
Frame rate : 31.250 FPS (1536 spf)
Bit depth : 16 bits
Compression mode : Lossy
Stream size : 439 MiB (30%)
Alignment : Aligned on interleaves
Interleave, duration : 42 ms (1.00 video frame)
Interleave, preload duratio : 512 ms

Скриншоты

[Цитировать]



Показать сообщения:    

Текущее время: 14-Ноя 17:14

Часовой пояс: UTC + 6


Вы не можете начинать темы
Вы не можете отвечать на сообщения
Вы не можете редактировать свои сообщения
Вы не можете удалять свои сообщения
Вы не можете голосовать в опросах
Вы не можете прикреплять файлы к сообщениям
Вы не можете скачивать файлы

!ВНИМАНИЕ!
Сайт не предоставляет электронные версии произведений, а занимается лишь коллекционированием и каталогизацией ссылок, присылаемых и публикуемых на форуме нашими читателями. Если вы являетесь правообладателем какого-либо представленного материала и не желаете, чтобы ссылка на него находилась в нашем каталоге, свяжитесь с нами, и мы незамедлительно удалим ее. Файлы для обмена на трекере предоставлены пользователями сайта, и администрация не несет ответственности за их содержание. Просьба не заливать файлы, защищенные авторскими правами, а также файлы нелегального содержания!