[ Сегодня идет свободное скачивание без начисления Download ]


Статистика раздачи
Нет
 
   
 
 
 
Однажды в России (2016.12.18) (сезон 4, выпуск 16) WEB-DL 720p-LQ- Телекомпания: ТНТ
Производство: Россия
Жанр: Юмористическое тв-шоу
В ролях: Азамат Мусагалиев, Игорь Ласточкин, Ирина Чеснокова, Тимур Тания, Ольга Картункова, Александр Пташенчук, Максим Киселёв, Денис Дорохов, Заур Байцаев, Давид Цаллаев и др.
Описание:
Шоу «Однажды в России», как и многие проекты ТНТ, имеет оригинальный формат. Это будет «реальный театр». То есть заранее написанный сценарий герой шоу «Однажды в России» постарается воплотить в повседневной жизни. А это совсем не так просто, как может показаться сначала, но зато очень смешно. Передача построена на чередовании скетчей. Создатели «Однажды в России» – Семен Слепаков и Слава Дусмухаметов, за плечами которых – продюсирование сериала «Интерны», «Наша RUSSIA», и других нашумевших фильмов и передач. В роли ведущего выступит Вадим Галыгин.
Россия - богатейшая страна, в которой много нефти, газа и проблем. Новое шоу ТНТ "Однажды в России" не решает ни одной из них. Оно над ними смеется.

Возраст: 16+ (зрителям, достигшим 16 лет)
Рейтинг MPAA: R (лицам до 17 лет обязательно присутствие взрослого)
Дата премьеры в РФ: 28 сентября 2014

Релиз от: qqss44
Продолжительность: 00:49:44
Качество видео: WEB-DL
Субтитры: Отсутствуют
Видео: AVC, 1280x720 (16:9), 25.000 fps, 3 511 Kbps (0.076 bit/pixel)
Аудио: AC-3, 48.0 KHz, 2 ch, 192 Kbps, CBR

Информация по видеофайлу

Общее
Уникальный идентификатор                 : 228167413138669466339937180720203091767 (0xABA7720120CC581088A4557E43B8CF37)
Полное имя                               : D:\[1]\Однажды в России\Однажды в России. Сезон 4. Выпуск 16 (2016.12.18)_720.mkv
Формат                                   : Matroska
Версия формата                           : Version 2
Размер файла                             : 1,31 Гбайт
Продолжительность                        : 49 м.
Общий поток                              : 3779 Кбит/сек
Дата кодирования                         : UTC 2016-12-18 18:45:32
Программа кодирования                    : mkvmerge v7.9.0 ('Birds') 64bit
Библиотека кодирования                   : libebml v1.3.1 + libmatroska v1.4.2
DURATION                                 : 00:49:43.968000000
NUMBER_OF_FRAMES                         : 93249
NUMBER_OF_BYTES                          : 71615232
_STATISTICS_WRITING_APP                  : mkvmerge v7.9.0 ('Birds') 64bit
_STATISTICS_WRITING_DATE_UTC             : 2016-12-18 18:45:32
_STATISTICS_TAGS                         : BPS DURATION NUMBER_OF_FRAMES NUMBER_OF_BYTES
Видео
Идентификатор                            : 1
Формат                                   : AVC
Формат/Информация                        : Advanced Video Codec
Профиль формата                          : [url=mailto:High@L3.1]High@L3.1[/url]
Параметр CABAC формата                   : Да
Параметр ReFrames формата                : 1 кадр
Параметр GOP формата                     : M=1, N=12
Идентификатор кодека                     : V_MPEG4/ISO/AVC
Продолжительность                        : 49 м.
Битрейт                                  : 3511 Кбит/сек
Ширина                                   : 1280 пикселей
Высота                                   : 720 пикселей
Соотношение сторон                       : 16:9
Режим частоты кадров                     : Постоянный
Частота кадров                           : 25,000 кадров/сек
Стандарт вещания                         : Component
Цветовое пространство                    : YUV
Субдискретизация насыщенности            : 4:2:0
Битовая глубина                          : 8 бит
Тип развёртки                            : Прогрессивная
Бит/(Пиксели*Кадры)                      : 0.152
Размер потока                            : 1,22 Гбайт (93%)
Default                                  : Да
Forced                                   : Нет
Цветовой диапазон                        : Limited
Аудио
Идентификатор                            : 2
Формат                                   : AC-3
Формат/Информация                        : Audio Coding 3
Расширение режима                        : CM (complete main)
Параметр Endianness формата              : Big
Идентификатор кодека                     : A_AC3
Продолжительность                        : 49 м.
Вид битрейта                             : Постоянный
Битрейт                                  : 192 Кбит/сек
Каналы                                   : 2 канала
Расположение каналов                     : Front: L R
Частота                                  : 48,0 КГц
Битовая глубина                          : 16 бит
Метод сжатия                             : С потерями
Размер потока                            : 68,3 Мбайт (5%)
Default                                  : Да
Forced                                   : Нет
Скриншоты:

[Цитировать]

Топик был перенесен из форума Развлекательные в форум Однажды в России
D-r Woland_kz



Показать сообщения:    

Текущее время: 25-Май 12:59

Часовой пояс: UTC + 6


Вы не можете начинать темы
Вы не можете отвечать на сообщения
Вы не можете редактировать свои сообщения
Вы не можете удалять свои сообщения
Вы не можете голосовать в опросах
Вы не можете прикреплять файлы к сообщениям
Вы не можете скачивать файлы

!ВНИМАНИЕ!
Сайт не предоставляет электронные версии произведений, а занимается лишь коллекционированием и каталогизацией ссылок, присылаемых и публикуемых на форуме нашими читателями. Если вы являетесь правообладателем какого-либо представленного материала и не желаете, чтобы ссылка на него находилась в нашем каталоге, свяжитесь с нами, и мы незамедлительно удалим ее. Файлы для обмена на трекере предоставлены пользователями сайта, и администрация не несет ответственности за их содержание. Просьба не заливать файлы, защищенные авторскими правами, а также файлы нелегального содержания!