[ Сегодня идет свободное скачивание без начисления Download ]


Статистика раздачи
Скачал: [ 1 ]
 
   
 
 
 
 
VA - The Best of Instrumental Music (2004) -
Жанр: Instrumental
Издание: SomWax - SW 403-2
Продолжительность: 00:58:29
Кодек: FLAC
Тип рипа: image + .cue
Треклист:
01. Paul Mauriat Orchestra - El Bimbo (2:30)
02. Candy Dulfer & Dave Steward - Lily Was Here (4:18)
03. The Ventures - Vibrations (2:53)
04. Mario Cavallero - La Cumparsita (2:32)
05. Gil Ventura - Pink Panther (2:48)
06. Paul Mauriat Orchestra - Rain-Rain(Vien-Vien) (2:50)
07. Kenny G. - Greensleeves (3:29)
08. Edward Simoni - House Of The Rising Sun (3:23)
09. Fausto Papetti - Eternally (3:03)
10. Gil Ventura - Feelings (4:12)
11. Paul Mauriat Orchestra - Alouette (2:11)
12. Gerard Mainville & Orchestra - Love Story (3:51)
13. Palle Mikkelborg - Smile (4:12)
14. Fausto Papetti - Emmanuelle (3:19)
15. Nini Rota Orchestra - Love Theme (2:38)
16. Mario Cavallero - Jealousy (3:13)
17. Fausto Papetti - Adagio (Adagio D'albinoni) (3:05)
18. James Last Orchestra - Concertod'aranjuez-Adagio (4:02)
-

Отчёт EAC:

Exact Audio Copy V1.0 beta 2 from 29. April 2011
Отчёт EAC об извлечении, выполненном 13. августа 2011, 0:41
Varius Artists / The Best of Instrumental Music
Дисковод: TSSTcorpCDDVDW SH-S222A Adapter: 0 ID: 0
Режим чтения : Достоверность
Использование точного потока : Да
Отключение кэша аудио : Да
Использование указателей C2 : Нет
Коррекция смещения при чтении : 6
Способность читать области Lead-in и Lead-out : Нет
Заполнение пропущенных сэмплов тишиной : Да
Удаление блоков с тишиной в начале и конце : Нет
При вычислениях CRC использовались нулевые сэмплы : Нет
Интерфейс : Встроенный Win32-интерфейс для Win NT/2000
Выходной формат : Пользовательский кодировщик
Выбранный битрейт : 768 kBit/s
Качество : Высокий
Добавление ID3-тега : Нет
Утилита сжатия : C:\Program Files\Exact Audio Copy\FLAC\FLAC.EXE
Дополнительные параметры : -6 -V -T "ARTIST=%artist%" -T "TITLE=%title%" -T "ALBUM=%albumtitle%" -T "DATE=%year%" -T "TRACKNUMBER=%tracknr%" -T "GENRE=%genre%" -T "COMMENT=%comment%" -T "BAND=%albuminterpret%" -T "COMPOSER=%composer%" %haslyrics%--tag-from-
TOC извлечённого CD
Трек | Старт | Длительность | Начальный сектор | Конечный сектор
---------------------------------------------------------------------
1 | 0:00.00 | 2:30.38 | 0 | 11287
2 | 2:30.38 | 4:18.55 | 11288 | 30692
3 | 6:49.18 | 2:53.37 | 30693 | 43704
4 | 9:42.55 | 2:32.32 | 43705 | 55136
5 | 12:15.12 | 2:48.31 | 55137 | 67767
6 | 15:03.43 | 2:50.56 | 67768 | 80573
7 | 17:54.24 | 3:29.60 | 80574 | 96308
8 | 21:24.09 | 3:23.50 | 96309 | 111583
9 | 24:47.59 | 3:03.33 | 111584 | 125341
10 | 27:51.17 | 4:12.22 | 125342 | 144263
11 | 32:03.39 | 2:11.21 | 144264 | 154109
12 | 34:14.60 | 3:51.01 | 154110 | 171435
13 | 38:05.61 | 4:12.68 | 171436 | 190403
14 | 42:18.54 | 3:19.14 | 190404 | 205342
15 | 45:37.68 | 2:38.09 | 205343 | 217201
16 | 48:16.02 | 3:13.10 | 217202 | 231686
17 | 51:29.12 | 3:05.23 | 231687 | 245584
18 | 54:34.35 | 4:02.40 | 245585 | 263774
Характеристики диапазона извлечения и сообщения об ошибках
Выбранный диапазон
Имя файла D:\Downloads\VA - The Best Of Instrumental Music\Varius Artists - The Best of Instrumental Music.wav
Пиковый уровень 93.6 %
Скорость извлечения 7.8 X
Качество диапазона 100.0 %
CRC копии 5BA98321
Копирование... OK
Ошибок не произошло
AccurateRip: сводка
Трек 1 отсутствует в базе данных
Трек 2 отсутствует в базе данных
Трек 3 отсутствует в базе данных
Трек 4 отсутствует в базе данных
Трек 5 отсутствует в базе данных
Трек 6 отсутствует в базе данных
Трек 7 отсутствует в базе данных
Трек 8 отсутствует в базе данных
Трек 9 отсутствует в базе данных
Трек 10 отсутствует в базе данных
Трек 11 отсутствует в базе данных
Трек 12 отсутствует в базе данных
Трек 13 отсутствует в базе данных
Трек 14 отсутствует в базе данных
Трек 15 отсутствует в базе данных
Трек 16 отсутствует в базе данных
Трек 17 отсутствует в базе данных
Трек 18 отсутствует в базе данных
Ни одного трека нет в базе AccurateRip
Конец отчёта
==== Контрольная сумма отчёта 9C18E58B8D1B061F755CEE50CCB539705EA13ACE83CF45B8890448B481816657 ====

Cue Sheet (.cue):

REM GENRE Instrumental
REM DISCID 120DBD12
REM COMMENT "ExactAudioCopy v1.0b2"
PERFORMER "Varius Artists"
TITLE "The Best of Instrumental Music"
FILE "Varius Artists - The Best of Instrumental Music.flac" WAVE
TRACK 01 AUDIO
TITLE "El Bimbo"
PERFORMER "Paul Mauriat Orchestra"
INDEX 01 00:00:00
TRACK 02 AUDIO
TITLE "Lily Was Here"
PERFORMER "Candy Dulfer & Dave Steward"
INDEX 01 02:30:38
TRACK 03 AUDIO
TITLE "Vibrations"
PERFORMER "The Ventures"
INDEX 01 06:49:18
TRACK 04 AUDIO
TITLE "La Cumparsita"
PERFORMER "Mario Cavallero"
INDEX 01 09:42:55
TRACK 05 AUDIO
TITLE "Pink Panther"
PERFORMER "Gil Ventura"
INDEX 01 12:15:12
TRACK 06 AUDIO
TITLE "Rain-Rain(Vien-Vien)"
PERFORMER "Paul Mauriat Orchestra"
INDEX 01 15:03:43
TRACK 07 AUDIO
TITLE "Greensleeves"
PERFORMER "Kenny G."
INDEX 01 17:54:24
TRACK 08 AUDIO
TITLE "House Of The Rising Sun"
PERFORMER "Edward Simoni"
INDEX 01 21:24:09
TRACK 09 AUDIO
TITLE "Eternally"
PERFORMER "Fausto Papetti"
INDEX 01 24:47:59
TRACK 10 AUDIO
TITLE "Feelings"
PERFORMER "Gil Ventura"
INDEX 01 27:51:17
TRACK 11 AUDIO
TITLE "Alouette"
PERFORMER "Paul Mauriat Orchestra"
INDEX 01 32:03:39
TRACK 12 AUDIO
TITLE "Love Story"
PERFORMER "Gerard Mainville & Orchestra"
INDEX 01 34:14:60
TRACK 13 AUDIO
TITLE "Smile"
PERFORMER "Palle Mikkelborg"
INDEX 01 38:05:61
TRACK 14 AUDIO
TITLE "Emmanuelle"
PERFORMER "Fausto Papetti"
INDEX 01 42:18:54
TRACK 15 AUDIO
TITLE "Love Theme"
PERFORMER "Nini Rota Orchestra"
INDEX 01 45:37:68
TRACK 16 AUDIO
TITLE "Jealousy"
PERFORMER "Mario Cavallero"
INDEX 01 48:16:02
TRACK 17 AUDIO
TITLE "Adagio (Adagio d'Albinoni)"
PERFORMER "Fausto Papetti"
INDEX 01 51:29:12
TRACK 18 AUDIO
TITLE "Concertod'Aranjuez-Adagio"
PERFORMER "James Last Orchestra"
INDEX 01 54:34:35

Отчёт auCDtect Task manager:

-----------------------
DON'T MODIFY THIS FILE
-----------------------
PERFORMER: auCDtect Task Manager, ver. 1.5.1RC4 build 1.5.1.5
Copyright (c) 2008-2010 y-soft. All rights reserved
http://y-soft.org
ANALYZER: auCDtect: CD records authenticity detector, version 0.8.2
Copyright (c) 2004 Oleg Berngardt. All rights reserved.
Copyright (c) 2004 Alexander Djourik. All rights reserved.
FILE: Varius Artists - The Best of Instrumental Music.flac
Size: 359649987 Hash: AE291F36140D7F5835E34F5EB90354D0 Accuracy: -m0
Conclusion: CDDA 100%
Signature: 223439EA7A02A07EBA8006A85BF796B715A5C6C2

[Цитировать]



Показать сообщения:    

Текущее время: 18-Окт 00:07

Часовой пояс: UTC + 6


Вы не можете начинать темы
Вы не можете отвечать на сообщения
Вы не можете редактировать свои сообщения
Вы не можете удалять свои сообщения
Вы не можете голосовать в опросах
Вы не можете прикреплять файлы к сообщениям
Вы не можете скачивать файлы

!ВНИМАНИЕ!
Сайт не предоставляет электронные версии произведений, а занимается лишь коллекционированием и каталогизацией ссылок, присылаемых и публикуемых на форуме нашими читателями. Если вы являетесь правообладателем какого-либо представленного материала и не желаете, чтобы ссылка на него находилась в нашем каталоге, свяжитесь с нами, и мы незамедлительно удалим ее. Файлы для обмена на трекере предоставлены пользователями сайта, и администрация не несет ответственности за их содержание. Просьба не заливать файлы, защищенные авторскими правами, а также файлы нелегального содержания!