[ Сегодня идет свободное скачивание без начисления Download ]


Статистика раздачи
Нет
 
   
 
 
 
 
Isao Tomita - Tomita's Greatest Hits CD

Жанр: Классика-электроника
Год выпуска диска: 1996
Аудио кодек: FLAC
Тип рипа: tracks+.cue
Битрейт аудио: lossless
Продолжительность: 1:10:18
Трэклист:
1. Also Sprach Zarathustra- Fanfare (Strauss) (2:06)
2. Grand Canyon Suite- On The Trail (Grofe) (7:11)
3. The Pachelbel Canon (5:50)
4. Syncopated Clock (Anderson) (2:31)
5. Bolero (Ravel) (9:20)
6. 'star Wars' Main Title (Williams) (3:07)
7. Clair De Lune (Debussy) (5:53)
8. Close Encounters Of The Third Kind (Williams) (3:41)
9. Symphony No. 5- Second Movement (Prokofiev) (5:25)
10. Golliwog's Cakewalk (Debussy) (2:54)
11. Firebird Suite- Infernal Dance Of King Kastchei (Stravinsky) (4:22)
12. Hora Staccato (Dinicu-Heifetz) (3:34)
13. The Planets- Mars, The Bringer Of War (Holst) (7:52)
14. Pictures At An Exhibition- The Great Gate Of Kiev (Mussorgsky) (6:32)

Отчет ЕАС

Exact Audio Copy V0.99 prebeta 4 from 23. January 2008
EAC extraction logfile from 14. September 2008, 11:53
Isao Tomita / Tomita's Greatest Hits CD
Used drive : _NEC DVD_RW ND-4570A Adapter: 1 ID: 1
Read mode : Secure
Utilize accurate stream : Yes
Defeat audio cache : Yes
Make use of C2 pointers : No
Read offset correction : 48
Overread into Lead-In and Lead-Out : No
Fill up missing offset samples with silence : Yes
Delete leading and trailing silent blocks : No
Null samples used in CRC calculations : Yes
Used interface : Native Win32 interface for Win NT & 2000
Gap handling : Appended to previous track
Used output format : Internal WAV Routines
Sample format : 44.100 Hz; 16 Bit; Stereo
TOC of the extracted CD
Track | Start | Length | Start sector | End sector
---------------------------------------------------------
1 | 0:00.00 | 2:06.10 | 0 | 9459
2 | 2:06.10 | 7:11.27 | 9460 | 41811
3 | 9:17.37 | 5:50.63 | 41812 | 68124
4 | 15:08.25 | 2:31.67 | 68125 | 79516
5 | 17:40.17 | 9:20.13 | 79517 | 121529
6 | 27:00.30 | 3:07.27 | 121530 | 135581
7 | 30:07.57 | 5:53.43 | 135582 | 162099
8 | 36:01.25 | 3:41.15 | 162100 | 178689
9 | 39:42.40 | 5:25.00 | 178690 | 203064
10 | 45:07.40 | 2:54.40 | 203065 | 216154
11 | 48:02.05 | 4:22.57 | 216155 | 235861
12 | 52:24.62 | 3:34.48 | 235862 | 251959
13 | 55:59.35 | 7:52.65 | 251960 | 287424
14 | 63:52.25 | 6:32.17 | 287425 | 316841
Track 1
Filename O:\0 Torrents\Tomita\Tomita's Greatest Hits CD\01 - Also Sprach Zarathustra- Fanfare (Strauss).wav
Pre-gap length 0:00:02.00
Peak level 48.3 %
Track quality 100.0 %
Test CRC 5B6020F1
Copy CRC 5B6020F1
Cannot be verified as accurate (confidence 2) [EDD529C7], AccurateRip returned [9ED5E2DA]
Copy OK
Track 2
Filename O:\0 Torrents\Tomita\Tomita's Greatest Hits CD\02 - Grand Canyon Suite- On The Trail (Grofe).wav
Pre-gap length 0:00:01.70
Peak level 76.5 %
Track quality 99.9 %
Test CRC AD97F2F0
Copy CRC AD97F2F0
Cannot be verified as accurate (confidence 2) [B4DDA54B], AccurateRip returned [2DD074C4]
Copy OK
Track 3
Filename O:\0 Torrents\Tomita\Tomita's Greatest Hits CD\03 - The Pachelbel Canon.wav
Pre-gap length 0:00:02.13
Peak level 72.0 %
Track quality 100.0 %
Test CRC 3FB9ED90
Copy CRC 3FB9ED90
Cannot be verified as accurate (confidence 2) [A60893B6], AccurateRip returned [9C53202E]
Copy OK
Track 4
Filename O:\0 Torrents\Tomita\Tomita's Greatest Hits CD\04 - Syncopated Clock (Anderson).wav
Pre-gap length 0:00:01.44
Peak level 85.4 %
Track quality 100.0 %
Test CRC 1F16EC9C
Copy CRC 1F16EC9C
Cannot be verified as accurate (confidence 2) [28A1E5BA], AccurateRip returned [CDADC4DB]
Copy OK
Track 5
Filename O:\0 Torrents\Tomita\Tomita's Greatest Hits CD\05 - Bolero (Ravel).wav
Pre-gap length 0:00:01.02
Peak level 82.7 %
Track quality 99.9 %
Test CRC 0BB3B8A7
Copy CRC 0BB3B8A7
Cannot be verified as accurate (confidence 2) [51F4E37B], AccurateRip returned [D9FF4444]
Copy OK
Track 6
Filename O:\0 Torrents\Tomita\Tomita's Greatest Hits CD\06 - 'Star Wars' Main Title (Williams).wav
Pre-gap length 0:00:02.46
Peak level 34.8 %
Track quality 100.0 %
Test CRC 73C2E786
Copy CRC 73C2E786
Cannot be verified as accurate (confidence 2) [415342D3], AccurateRip returned [403CF26B]
Copy OK
Track 7
Filename O:\0 Torrents\Tomita\Tomita's Greatest Hits CD\07 - Clair De Lune (Debussy).wav
Pre-gap length 0:00:00.80
Peak level 17.4 %
Track quality 100.0 %
Test CRC CC908FA7
Copy CRC CC908FA7
Cannot be verified as accurate (confidence 2) [62DD335C], AccurateRip returned [4E80E5F9]
Copy OK
Track 8
Filename O:\0 Torrents\Tomita\Tomita's Greatest Hits CD\08 - Close Encounters Of The Third Kind (Williams).wav
Pre-gap length 0:00:02.80
Peak level 67.9 %
Track quality 99.9 %
Test CRC B9A9427F
Copy CRC B9A9427F
Cannot be verified as accurate (confidence 2) [D13DB9BD], AccurateRip returned [EF6F4EFC]
Copy OK
Track 9
Filename O:\0 Torrents\Tomita\Tomita's Greatest Hits CD\09 - Symphony No. 5- Second Movement (Prokofiev).wav
Peak level 84.5 %
Track quality 100.0 %
Test CRC 899A8529
Copy CRC 899A8529
Cannot be verified as accurate (confidence 2) [D6E6E24E], AccurateRip returned [4DD6D22A]
Copy OK
Track 10
Filename O:\0 Torrents\Tomita\Tomita's Greatest Hits CD\10 - Golliwog's Cakewalk (Debussy).wav
Pre-gap length 0:00:02.57
Peak level 43.7 %
Track quality 100.0 %
Test CRC 7D2212A6
Copy CRC 7D2212A6
Cannot be verified as accurate (confidence 2) [63C5D43A], AccurateRip returned [06E126F9]
Copy OK
Track 11
Filename O:\0 Torrents\Tomita\Tomita's Greatest Hits CD\11 - Firebird Suite- Infernal Dance Of King Kastchei (Stravinsky).wav
Pre-gap length 0:00:00.97
Peak level 68.1 %
Track quality 99.8 %
Test CRC F5C0BB0C
Copy CRC F5C0BB0C
Cannot be verified as accurate (confidence 2) [CFD85E7A], AccurateRip returned [DD9F2BD4]
Copy OK
Track 12
Filename O:\0 Torrents\Tomita\Tomita's Greatest Hits CD\12 - Hora Staccato (Dinicu-Heifetz).wav
Pre-gap length 0:00:01.02
Peak level 38.3 %
Track quality 100.0 %
Test CRC B90D4BCB
Copy CRC B90D4BCB
Cannot be verified as accurate (confidence 2) [7F6B1A3D], AccurateRip returned [C6FA765B]
Copy OK
Track 13
Filename O:\0 Torrents\Tomita\Tomita's Greatest Hits CD\13 - The Planets- Mars, The Bringer Of War (Holst).wav
Pre-gap length 0:00:03.17
Peak level 78.3 %
Track quality 99.9 %
Test CRC 6F1B890A
Copy CRC 6F1B890A
Cannot be verified as accurate (confidence 2) [5DF443A9], AccurateRip returned [CD19D7C5]
Copy OK
Track 14
Filename O:\0 Torrents\Tomita\Tomita's Greatest Hits CD\14 - Pictures At An Exhibition- The Great Gate Of Kiev (Mussorgsky).wav
Pre-gap length 0:00:02.66
Peak level 79.3 %
Track quality 100.0 %
Test CRC 0DE4A660
Copy CRC 0DE4A660
Cannot be verified as accurate (confidence 2) [0A461338], AccurateRip returned [27979EBF]
Copy OK
No tracks could be verified as accurate
You may have a different pressing from the one(s) in the database
No errors occurred
End of status report

[Цитировать]



Показать сообщения:    

Текущее время: 13-Дек 01:15

Часовой пояс: UTC + 6


Вы не можете начинать темы
Вы не можете отвечать на сообщения
Вы не можете редактировать свои сообщения
Вы не можете удалять свои сообщения
Вы не можете голосовать в опросах
Вы не можете прикреплять файлы к сообщениям
Вы не можете скачивать файлы

!ВНИМАНИЕ!
Сайт не предоставляет электронные версии произведений, а занимается лишь коллекционированием и каталогизацией ссылок, присылаемых и публикуемых на форуме нашими читателями. Если вы являетесь правообладателем какого-либо представленного материала и не желаете, чтобы ссылка на него находилась в нашем каталоге, свяжитесь с нами, и мы незамедлительно удалим ее. Файлы для обмена на трекере предоставлены пользователями сайта, и администрация не несет ответственности за их содержание. Просьба не заливать файлы, защищенные авторскими правами, а также файлы нелегального содержания!