[ Сегодня идет свободное скачивание без начисления Download ]


Статистика раздачи
Буду качать: [ 1 ]
Качаю: [ 1 ]
Скачал: [ 5 ]
 
   
 
 
 
 
Гримм / Grimm«Not your usual suspects»- Производство: США
Год выпуска: 2017
Жанр: ужасы, фэнтези, драма, детектив
Продолжительность: ~ 00:43:00 серия
Перевод: Многоголосый закадровый, профессиональный LostFilm
Премьера (мир): 28 октября 2011
Премьера (РФ): 20 сентября 2012
Режиссер: Норберто Барба / Norberto Barba, Терренс О’Хара / Terrence O'Hara, Эрик Ланёвилль / Eric Laneuville, ...
Актеры: Дэвид Джунтоли (Ник Бёркхардт), Рассел Хорнсби (Хэнк Гриффин), Битси Таллоч (Джульетта Сильвертон), Сайлас Уэйр Митчелл (Эдди Монро), Регги Ли (сержант Ву), Саша Ройз (капитан Шон Ренард), Мэри Элизабет Мастрантонио (Келли Бёркхардт), Кейт Бертон (Мари Кесслер).
Описание фильма:
Ник Бёркхардт - детектив отдела по расследованию убийств из Портленда. Волею судьбы он также является одним из последних потомков семейства Гримм, члены которого из века в век занимаются истреблением сверхъестественных монстров, живущих в мире людей.
Ник, как и все его предки, способен видеть истинную сущность нечисти, под какой бы маской она не пряталась.
Узнав о своей судьбе, Ник принимает «вечный бой» против потустороннего зла, и теперь должен защищать от него людей.
В ходе своих расследований детектив Бёркхарт приобретает союзников в лице своей девушки, напарника Хэнка Гриффина, а также «перевоспитанного» потрошителя Эдди Монро.

Качество видео: WEB-DLRip
Формат: AVI
Видео: XviD, 720x400 (16:9), 23,976 fps, ~1500 kbps
Аудио Rus: MP3, 48 kHz, 2 ch, 128 kbps |LostFilm|
Аудио Eng: MP3, 48 kHz, 2 ch, 128 kbps |Original|
Субтитры: отсутствуют
Реклама: отсутствует

MediaInfo

ОбщееПолное имя                               : E:\_Сериалы\_Сериалы\Гримм\Grimm (Season 06) LostFilm\Grimm.S06E01.WEB-DLRip.Rus.Eng.LostFilm.aviФормат                                   : AVIФормат/Информация                        : Audio Video InterleaveРазмер файла                             : 550 МбайтПродолжительность                        : 42 м. 59 с.Общий поток                              : 1790 Кбит/секПрограмма кодирования                    : VirtualDubMod 1.5.10.3 | www.virtualdub-fr.org || (build 2550/release)Библиотека кодирования                   : VirtualDubMod build 2550/release
ВидеоИдентификатор                            : 0Формат                                   : MPEG-4 VisualПрофиль формата                          : Advanced Simple@L5Параметр BVOP формата                    : 1Параметр QPel формата                    : НетПараметр GMC формата                     : Без точки переходаПараметр матрицы формата                 : Default (MPEG)Идентификатор кодека                     : XVIDИдентификатор кодека/Подсказка           : XviDПродолжительность                        : 42 м. 59 с.Битрейт                                  : 1520 Кбит/секШирина                                   : 720 пикселейВысота                                   : 400 пикселейСоотношение сторон                       : 16:9Частота кадров                           : 23,976 (24000/1001) кадра/секЦветовое пространство                    : YUVСубдискретизация насыщенности            : 4:2:0Битовая глубина                          : 8 битТип развёртки                            : ПрогрессивнаяМетод сжатия                             : С потерямиБит/(Пиксели*Кадры)                      : 0.220Размер потока                            : 467 Мбайт (85%)Библиотека кодирования                   : XviD 73
Аудио #1Идентификатор                            : 1Формат                                   : MPEG AudioВерсия формата                           : Version 1Профиль формата                          : Layer 3Режим                                    : Joint stereoРасширение режима                        : MS StereoИдентификатор кодека                     : 55Идентификатор кодека/Подсказка           : MP3Продолжительность                        : 42 м. 59 с.Вид битрейта                             : ПостоянныйБитрейт                                  : 128 Кбит/секКаналы                                   : 2 каналаЧастота                                  : 48,0 КГцМетод сжатия                             : С потерямиРазмер потока                            : 39,4 Мбайт (7%)Выравнивание                             : Соединение по промежуткамПродолжительность промежутка             : 42  мс. (1,00 видеокадр)Время предзагрузки промежутка            : 504  мс.
Аудио #2Идентификатор                            : 2Формат                                   : MPEG AudioВерсия формата                           : Version 1Профиль формата                          : Layer 3Режим                                    : Joint stereoРасширение режима                        : MS StereoИдентификатор кодека                     : 55Идентификатор кодека/Подсказка           : MP3Продолжительность                        : 42 м. 59 с.Вид битрейта                             : ПостоянныйБитрейт                                  : 128 Кбит/секКаналы                                   : 2 каналаЧастота                                  : 48,0 КГцМетод сжатия                             : С потерямиРазмер потока                            : 39,4 Мбайт (7%)Выравнивание                             : Соединение по промежуткамПродолжительность промежутка             : 42  мс. (1,00 видеокадр)Время предзагрузки промежутка            : 504  мс.

Скриншоты

Внимание! Раздача ведётся путём добавления новых серий!

Раздача ведётся путём добавления новых серий; при каждом добавлении создаётся новый торрент.
Чтобы начать докачку новой серии, пользователям необходимо сделать следующее:
1. остановить скачивание,
2. удалить старый торрент у себя из клиента (старые серии удалять не надо),
3. скачать новый торрент и запустить его у себя в клиенте вместо старого, при этом указать клиенту путь в старую папку, куда и должно происходить скачивание новых серий.
Ваш клиент при этом должен произвести хеширование (проверку) старой папки (если не производит сам - помогите ему сделать это), и будет докачивать только те серии которых у вас ещё нет. Старые серии при этом не удаляются, а продолжают раздаваться!
Eсли вы уже удалили старые серии, то предотвратить повторную закачку старых серий можно, отжав галочку в соответствующих местах при запуске нового торрента. По возможности, желательно не удалять старые серии как можно дольше, чтобы релизёр не столько продолжал раздавать старые серии, а смог сконцентрироваться на новых.
Совет для тех, кто не хочет ждать перехеширования:
Создайте ещё одну папку рядом с папкой сериала (рядом, а не в ней!!!). Каждую новую серию после удачной загрузки копируйте в новую папку так чтобы ваша основная папка всегда была пуста. Когда ваш новый торрент предложит вам закачать все файлы, выберете только последнюю. Для сидирования же укажите адрес новой папки.
Как закачать отдельный файл из торрента или докачать ранее пропущенные файлы торрента!
Добавлена 13 серия.
Полный сезон.


Последний раз редактировалось: Dimasik79 (2017-04-04 22:40), всего редактировалось 4 раз(а)

[Цитировать]

Добавлена 13 серия.
Полный сезон.

[Цитировать]

Dimasik79

[Цитировать]



Показать сообщения:    

Текущее время: 14-Дек 19:12

Часовой пояс: UTC + 6


Вы не можете начинать темы
Вы не можете отвечать на сообщения
Вы не можете редактировать свои сообщения
Вы не можете удалять свои сообщения
Вы не можете голосовать в опросах
Вы не можете прикреплять файлы к сообщениям
Вы не можете скачивать файлы

!ВНИМАНИЕ!
Сайт не предоставляет электронные версии произведений, а занимается лишь коллекционированием и каталогизацией ссылок, присылаемых и публикуемых на форуме нашими читателями. Если вы являетесь правообладателем какого-либо представленного материала и не желаете, чтобы ссылка на него находилась в нашем каталоге, свяжитесь с нами, и мы незамедлительно удалим ее. Файлы для обмена на трекере предоставлены пользователями сайта, и администрация не несет ответственности за их содержание. Просьба не заливать файлы, защищенные авторскими правами, а также файлы нелегального содержания!