[ Сегодня идет свободное скачивание без начисления Download ]


Статистика раздачи
Качаю: [ 1 ]
Скачал: [ 7 ]
 
   
 
 
 
 
Викинги / Vikings [5 сезон: серии 1-10 из 20] (2017) WEB-DL 1080p Информация о фильме
Название: Викинги
Оригинальное название: Vikings
Год выпуска: 2017
Жанр: боевик, драма, мелодрама, военный, история
Режиссер: Кен Джиротти , Киаран Доннелли , Джефф Вулнаф
В ролях: Густаф Скарсгард, Кэтрин Уинник, Александр Людвиг, Трэвис Фиммел, Клайв Стэнден, Алекс Хег Андерсен, Мод Хёрст, Джордан Патрик Смит, Алисса Сазерленд, Мо Данфорд, Лайнас Роуч, Джонатан Риз Майерс
О фильме:
Вольная интерпретация событий времен раннего Средневековья – экшн-драма, созданная на основе скандинавских саг сценаристом «Тюдоров» и «Елизаветы» Майклом Хёрстом. Сериал поведает о ранних набегах викингов на Британские острова и Западно-Франкское королевство. Главный герой – Рагнар Лодброк – вождь викингов, по норвежской легенде прямой потомок самого Одина, бога войны и воинов. Он бросает вызов местному правителю и вместе со своим верным другом, талантливым мастером Флоки, строит быстроходный корабль, чтобы отправиться покорять новые земли. Рагнара и его соратников ждут победы и поражения, а вместе с ними и жестокое противостояние с действующим ярлом, воле которого он осмелился перечить. В роли легендарного воина австралийский актер Трэвис Фиммел («Варкрафт»).
В пятом сезоне исторический эпик впервые будет существовать без своего незабвенного вождя. Однако это ничуть не убавит динамики и драматического накала, за которые сериал так полюбился зрителям. Война между братьями, планы мести за смерть отца, и вообще, как утверждает королева Каттегата, “конец света”. Судя по трейлерам, всё к этому и идет. А еще в финале прошлого сезона к актерскому составу присоединился красавчик Джонатан Риз Майерс из «Тюдоров» – его страстно одержимый верой персонаж сыграет важную роль в продолжении драмы.

Страна: Ирландия, Канада
Студия: Irish Film Board, Shaw Media, Take 5 Productions, World 2000 Entertainment
Продолжительность: ~ 00:45:00 серия
Перевод: Профессиональный (многоголосый, закадровый) AlexFilm
Файл
Качество: WEB-DL 1080p
Формат: Matroska
Видео: 1920x1080 at 23.976 fps, MPEG-4 AVC, ~6000 kbps avg
Аудио: Russian: 48 kHz, AC3, 3/2 (L,C,R,l,r) + LFE ch, ~384 kbps avg |Многоголосый закадровый, AlexFilm|
Субтитры: None
***Примечание: Без рекламы.
***Релиз: Keedof.

Список серий

01. The Departed, Part 1 / Усопшие, Часть 1
02. The Departed, Part 2 / Усопшие, Часть 2
03. Homeland / Родина
04. The Plan / План
05. The Prisoner / Пленник
06. The Message / Весточка
07. Full Moon / Полнолуние
08. The Joke / Шутка
09. A Simple Story / Простая история
10. Moments of Vision / Моменты озарения

MediaInfo:

Общее
Уникальный идентификатор : 220664400267185356233047991023172932643 (0xA6026AE8B798DDDF96C2D93512255423)
Полное имя : D:\Vikings_(s05)_AlexFilm_1080p\Vikings.s05e01.WEB-DL.1080p.AlexFilm.mkv
Формат : Matroska
Версия формата : Version 2
Размер файла : 2,09 Гбайт
Продолжительность : 45 м. 50 с.
Режим общего битрейта : Переменный
Общий поток : 6542 Кбит/сек
Дата кодирования : UTC 2017-12-01 08:13:40
Программа кодирования : mkvmerge v4.9.1 ('Ich will') сборка от Jul 11 2011 23:53:15
Библиотека кодирования : libebml v1.2.1 + libmatroska v1.1.1
Видео
Идентификатор : 1
Формат : AVC
Формат/Информация : Advanced Video Codec
Профиль формата : High@L4
Настройки формата : CABAC / 4 Ref Frames
Параметр CABAC формата : Да
Параметр RefFrames формата : 4 кадра
Режим смешивания : Header stripping
Идентификатор кодека : V_MPEG4/ISO/AVC
Продолжительность : 45 м. 50 с.
Вид битрейта : Переменный
Битрейт : 6028 Кбит/сек
Максимальный битрейт : 15,0 Мбит/сек
Ширина : 1920 пикселей
Высота : 1080 пикселей
Соотношение сторон : 16:9
Режим частоты кадров : Постоянный
Частота кадров : 23,976 (24000/1001) кадра/сек
Цветовое пространство : YUV
Субдискретизация насыщенности : 4:2:0
Битовая глубина : 8 бит
Тип развёртки : Прогрессивная
Бит/(Пиксели*Кадры) : 0.121
Размер потока : 1,93 Гбайт (92%)
Default : Да
Forced : Нет
Цветовой диапазон : Limited
Основные цвета : BT.709
Характеристики трансфера : BT.709
Коэффициенты матрицы : BT.709
Аудио
Идентификатор : 2
Формат : AC-3
Формат/Информация : Audio Coding 3
Параметр Endianness формата : Big
Режим смешивания : Header stripping
Идентификатор кодека : A_AC3
Продолжительность : 45 м. 50 с.
Вид битрейта : Постоянный
Битрейт : 384 Кбит/сек
Каналы : 6 каналов
Расположение каналов : Front: L C R, Side: L R, LFE
Частота : 48,0 КГц
Частота кадров : 31,250 кадров/сек (1536 SPF)
Битовая глубина : 16 бит
Метод сжатия : С потерями
Размер потока : 126 Мбайт (6%)
Заголовок : AlexFilm
Язык : Russian
ServiceKind/String : Complete Main
Default : Да
Forced : Нет

Скриншоты

Раздача ведется путем добавления новых серий

Когда раздача ведётся путём добавления новых серий, при каждом добавлении создётся новый торрент. Чтобы начать докачку новой серии, пользователям необходимо сделать следующее:
(1) остановить скачивание,
(2) удалить старый торрент у себя из клиента (старые серии удалять не надо),
(3) скачать новый торрент и запустить его у себя в клиенте вместо старого, при этом указать клиенту путь в старую папку, куда и должно происходить скачивание новых серий.
Ваш клиент при этом должен произвести хеширование (проверку) старой папки (если не производит сам - помогите ему сделать это), и будет докачивать только те серии, которых у вас ещё нет. Старые серии при этом не удаляются, а продолжают раздаваться!
Eсли вы уже удалили старые серии, то предотвратить повторную закачку старых серий можно, отжав галочку в соответсвующих местах при запуске нового торрента. По возможности, желательно не удалять старые серии как можно дольше, чтобы релизер не столько продолжал раздавать старые серии, а смог сконцентрироваться на новых.

[Цитировать]

11 серия 29 ноября 2018,ужас как долго))))

[Цитировать]



Показать сообщения:    

Текущее время: 13-Дек 17:39

Часовой пояс: UTC + 6


Вы не можете начинать темы
Вы не можете отвечать на сообщения
Вы не можете редактировать свои сообщения
Вы не можете удалять свои сообщения
Вы не можете голосовать в опросах
Вы не можете прикреплять файлы к сообщениям
Вы не можете скачивать файлы

!ВНИМАНИЕ!
Сайт не предоставляет электронные версии произведений, а занимается лишь коллекционированием и каталогизацией ссылок, присылаемых и публикуемых на форуме нашими читателями. Если вы являетесь правообладателем какого-либо представленного материала и не желаете, чтобы ссылка на него находилась в нашем каталоге, свяжитесь с нами, и мы незамедлительно удалим ее. Файлы для обмена на трекере предоставлены пользователями сайта, и администрация не несет ответственности за их содержание. Просьба не заливать файлы, защищенные авторскими правами, а также файлы нелегального содержания!