[ Сегодня идет свободное скачивание без начисления Download ]


Статистика раздачи
Нет
 
   
 
Top  
 
 
-Секс и ничего лишнего / My Awkward Sexual Adventure (2012) BDRip
«Комедия, которая доведёт вас до О...»
- Русское название: Секс и ничего лишнего
Оригинальное название: My Awkward Sexual Adventure
Год выпуска: 2012
Производство: Канада / Banana-Moon Sky Films, Julijette, Kosher Sexy Films
Жанр: Комедия
Перевод: Многоголосый закадровый, профессиональный [лицензия]
Субтитры: Вшитые отключаемые
Язык субтитров: Русский
Дата мировой премьеры: 11 сентября 2012
Дата российской премьеры: 14 марта 2013, «Премиум Фильм»
Дата выхода DVD релиза: 4 апреля 2013, «CP Дистрибуция»
Дата выхода Blu-Ray релиза: 4 апреля 2013, «CP Дистрибуция»
Режиссер: Шон Гэррити
Актеры: Йонас Черник, Эмили Хэмпшир, Сара Мэннинен, Вик Сахай, Мелисса Мари Елиас, Аиша Альфа, Онали Эймс, Рэнди Апостл, Майк Белл, Джессика Бёрлсон
Описание фильма:
Чтобы вернуть свою неудовлетворенную бывшую девушку, консервативный бухгалтер Джордан Абрамс заручается поддержкой Юлии — раскованной экзотической танцовщицы, которая отправляет его на поиски сексуального опыта, что открывает перед ним мир стрип-клубов, чувственных массажных салонов, переодеваний в женскую одежду и садомазохизма.

Продолжительность: 01:43:23
Качество видео: BDRip [MysTeRy]
Видеокодек: MPEG-4 AVC/H.264
Битрейт видео: ~2567 Кбит/сек
Размер кадра: 1280x720
Аудиокодек: AC3 5.1
Битрейт аудио: 448 Кбит/сек

MediaInfo:

Общее
Уникальный идентификатор         : 182324702333310207461244969928285769992 (0x892A75DBA0FFF8BA8EE480BBC4945108)
Полное имя                       : H:\Seks.i.nichego.lishnego.2012.P.x264.BDRip-MysTeRy.mkv
Формат                           : Matroska
Версия формата                   : Version 4 / Version 2
Размер файла                     : 2,18 Гбайт
Продолжительность                : 1 ч. 43 м.
Общий поток                      : 3014 Кбит/сек
Название фильма                  : Seks.i.nichego.lishnego.2012.P.x264.BDRip-MysTeRy
Дата кодирования                 : UTC 2013-04-03 03:30:33
Программа кодирования            : mkvmerge v6.1.0 ('Old Devil') built on Mar  2 2013 14:32:37
Библиотека кодирования           : libebml v1.3.0 + libmatroska v1.4.0
Видео
Идентификатор                    : 1
Формат                           : AVC
Формат/Информация                : Advanced Video Codec
Профиль формата                  : [url=mailto:High@L4.1]High@L4.1[/url]
Параметр CABAC формата           : Да
Параметр ReFrames формата        : 9 кадров
Идентификатор кодека             : V_MPEG4/ISO/AVC
Продолжительность                : 1 ч. 43 м.
Битрейт                          : 2567 Кбит/сек
Ширина                           : 1280 пикселей
Высота                           : 720 пикселей
Соотношение сторон               : 16:9
Частота кадров                   : 24,000 кадра/сек
Цветовое пространство            : YUV
Субдискретизация насыщенности    : 4:2:0
Битовая глубина                  : 8 бит
Тип развёртки                    : Прогрессивная
Бит/(Пиксели*Кадры)              : 0.116
Размер потока                    : 1,81 Гбайт (83%)
Заголовок                        : ENCODER........: MysTeRy
Библиотека кодирования           : x264 core 130 r2273 b3065e6
Настройки программы              : cabac=1 / ref=9 / deblock=1:-3:-3 / analyse=0x3:0x133 / me=umh / subme=10 / psy=1 / psy_rd=1.00:0.00 / mixed_ref=1 / me_range=32 / chroma_me=1 / trellis=2 / 8x8dct=1 / cqm=0 / deadzone=21,11 / fast_pskip=0 / chroma_qp_offset=-2 / threads=12 / lookahead_threads=1 / sliced_threads=0 / nr=0 / decimate=0 / interlaced=0 / bluray_compat=0 / constrained_intra=0 / bframes=6 / b_pyramid=2 / b_adapt=2 / b_bias=0 / direct=3 / weightb=1 / open_gop=0 / weightp=2 / keyint=250 / keyint_min=23 / scenecut=40 / intra_refresh=0 / rc_lookahead=60 / rc=2pass / mbtree=0 / bitrate=2567 / ratetol=1.0 / qcomp=0.70 / qpmin=0 / qpmax=69 / qpstep=4 / cplxblur=20.0 / qblur=0.5 / vbv_maxrate=50000 / vbv_bufsize=61400 / nal_hrd=none / ip_ratio=1.40 / pb_ratio=1.30 / aq=1:0.80
Язык                             : English
Default                          : Да
Forced                           : Нет
Основные цвета                   : BT.709-5, BT.1361, IEC 61966-2-4, SMPTE RP177
Характеристики трансфера         : BT.709-5, BT.1361
Коэффициенты матрицы             : BT.709-5, BT.1361, IEC 61966-2-4 709, SMPTE RP177
Аудио
Идентификатор                    : 2
Формат                           : AC-3
Формат/Информация                : Audio Coding 3
Расширение режима                : CM (complete main)
Идентификатор кодека             : A_AC3
Продолжительность                : 1 ч. 43 м.
Вид битрейта                     : Постоянный
Битрейт                          : 448 Кбит/сек
Каналы                           : 6 каналов
Расположение каналов             : Front: L C R, Side: L R, LFE
Частота                          : 48,0 КГц
Битовая глубина                  : 16 бит
Метод сжатия                     : С потерями
Размер потока                    : 331 Мбайт (15%)
Заголовок                        : P
Язык                             : Russian
Default                          : Да
Forced                           : Нет
Текст
Идентификатор                    : 3
Формат                           : UTF-8
Идентификатор кодека             : S_TEXT/UTF8
Идентификатор кодека/Информация  : UTF-8 Plain Text
Язык                             : Russian
Default                          : Нет
Forced                           : Нет
Меню
00:00:00.000                     : en:Chapter 01
00:05:17.625                     : en:Chapter 02
00:10:47.250                     : en:Chapter 03
00:21:32.708                     : en:Chapter 04
00:32:26.666                     : en:Chapter 05
00:40:38.916                     : en:Chapter 06
00:51:19.416                     : en:Chapter 07
00:59:48.708                     : en:Chapter 08
01:11:45.125                     : en:Chapter 09
01:21:30.666                     : en:Chapter 10
01:25:48.750                     : en:Chapter 11
01:32:39.708                     : en:Chapter 12

x264:

avs [info]: 1280x720p 1:1 @ 10000000/416667 fps (cfr)
x264 [info]: using SAR=1/1
x264 [info]: using cpu capabilities: MMX2 SSE2Fast SSSE3 SSE4.2 AVX
x264 [info]: profile High, level 4.1
x264 [info]: frame I:1715  Avg QP:16.32  size: 90740
x264 [info]: frame P:33329 Avg QP:19.13  size: 27123
x264 [info]: frame B:113838 Avg QP:20.88  size:  8157
x264 [info]: consecutive B-frames:  2.9%  2.9%  6.9% 21.3% 24.4% 30.0% 11.6%
x264 [info]: mb I  I16..4:  5.4% 83.0% 11.7%
x264 [info]: mb P  I16..4:  3.6% 12.9%  1.5%  P16..4: 47.4% 17.4% 11.0%  0.2%  0.0%    skip: 6.2%
x264 [info]: mb B  I16..4:  0.4%  0.8%  0.1%  B16..8: 36.4%  8.2%  1.6%  direct: 5.6%  skip:46.9%  L0:45.4% L1:45.4% BI: 9.2%
x264 [info]: 8x8 transform intra:72.0% inter:71.4%
x264 [info]: direct mvs  spatial:98.7% temporal:1.3%
x264 [info]: coded y,uvDC,uvAC intra: 65.0% 73.4% 39.2% inter: 17.0% 21.5% 5.1%
x264 [info]: i16 v,h,dc,p: 33% 13% 11% 42%
x264 [info]: i8 v,h,dc,ddl,ddr,vr,hd,vl,hu: 14%  8% 11%  9% 12% 13% 11% 12% 11%
x264 [info]: i4 v,h,dc,ddl,ddr,vr,hd,vl,hu: 14%  8%  8% 10% 14% 14% 11% 10% 10%
x264 [info]: i8c dc,h,v,p: 42% 21% 22% 15%
x264 [info]: Weighted P-Frames: Y:0.9% UV:0.4%
x264 [info]: ref P L0: 44.4%  8.6% 19.3%  7.2%  6.2%  4.8%  4.2%  2.6%  2.5%  0.3%  0.0%
x264 [info]: ref B L0: 68.2% 13.8%  7.1%  3.6%  2.9%  2.5%  1.4%  0.5%
x264 [info]: ref B L1: 90.7%  9.3%
x264 [info]: kb/s:2563.93
x264 [total]: encoded 148882 frames, 7.36 fps, 2563.94 kb/s
Скриншоты:



Время раздачи: 16.30-23.00 до 5 скачавших

[Цитировать]

Топик был перенесен из форума Новинки кинопроката в форум Комедия
Henkok



Показать сообщения:    

Текущее время: 26-Июл 06:48

Часовой пояс: UTC + 6


Вы не можете начинать темы
Вы не можете отвечать на сообщения
Вы не можете редактировать свои сообщения
Вы не можете удалять свои сообщения
Вы не можете голосовать в опросах
Вы не можете прикреплять файлы к сообщениям
Вы не можете скачивать файлы

!ВНИМАНИЕ!
Сайт не предоставляет электронные версии произведений, а занимается лишь коллекционированием и каталогизацией ссылок, присылаемых и публикуемых на форуме нашими читателями. Если вы являетесь правообладателем какого-либо представленного материала и не желаете, чтобы ссылка на него находилась в нашем каталоге, свяжитесь с нами, и мы незамедлительно удалим ее. Файлы для обмена на трекере предоставлены пользователями сайта, и администрация не несет ответственности за их содержание. Просьба не заливать файлы, защищенные авторскими правами, а также файлы нелегального содержания!