[ Сегодня идет свободное скачивание без начисления Download ]


Статистика раздачи
Скачал: [ 10 ]
 
   
 
 
 
 
Пещера / The Cave (2005) BDRip-AVC Информация о фильме
Название: Пещера
Оригинальное название: The Cave
Год выхода: 2005
Жанр: Ужасы, триллер, приключения
Режиссер: Брюс Хант
В ролях: Коул Хаузер, Эдди Сибриан, Моррис Честнат, Лина Хиди, Пайпер Перабо, Рик Раванелло, Дэниэл Дэ Ким, Киран Дарси-Смит, Марчел Юреш, Влад Радеску
О фильме :
В лесных дебрях Румынии группа ученых наталкивается на руины аббатства XIII века. Обследовав их, они совершают удивительное открытие — это сооружение было построено над входом в гигантский подземный грот. А по мнению местных биологов, в гроте существует уникальная и еще не познанная экосистема. В итоге они отправляются выведывать ее тайны вместе с американскими спелеологами — Джеком, его братом Тайлером и группой лучших в мире ныряльщиков. В их распоряжении — самое современное оборудование, с помощью которого можно в течение 24 часов оставаться под водой. Оказавшись в гроте, исследователи, к своему ужасу, находят не новую экосистему, а невиданных доселе существ…

Страна: США, Screen Gems, Cinerenta Medienbeteiligungs KG, Lakeshore Entertainment
Продолжительность: 01:37:09
Перевод: Профессиональный (многоголосый, закадровый) СТС
Файл
Формат: MKV
Качество: BDRip-AVC (BDRemux 1080p)
Видео: MPEG-4 AVC, 768x320, ~ 1000 Кбит/с
Аудио: AAC-LC, 2 ch, ~ 72 Кбит/с
Субтитры: Русские, английские

MI

Общее
Уникальный идентификатор : 249105198226408894188928626509529360689 (0xBB67EA82B0B84ACFA62A0B2735B22931)
Полное имя : D:MOVIESThe.Cave.2005.ExKinoRay.mkv
Формат : Matroska
Версия формата : Version 4 / Version 2
Размер файла : 746 Мбайт
Продолжительность : 1 ч. 37 м.
Общий поток : 1074 Кбит/сек
Дата кодирования : UTC 2017-12-21 14:35:35
Программа кодирования : mkvmerge v15.0.0 ('Duel with the Devil') 64-bit
Библиотека кодирования : libebml v1.3.5 + libmatroska v1.4.5
Видео
Идентификатор : 1
Формат : AVC
Формат/Информация : Advanced Video Codec
Профиль формата : High@L4.1
Параметр CABAC формата : Да
Параметр RefFrames формата : 10 кадров
Идентификатор кодека : V_MPEG4/ISO/AVC
Продолжительность : 1 ч. 37 м.
Битрейт : 1000 Кбит/сек
Ширина : 768 пикселей
Высота : 320 пикселей
Соотношение сторон : 2,40:1
Режим частоты кадров : Постоянный
Частота кадров : 23,976 (24000/1001) кадра/сек
Цветовое пространство : YUV
Субдискретизация насыщенности : 4:2:0
Битовая глубина : 8 бит
Тип развёртки : Прогрессивная
Бит/(Пиксели*Кадры) : 0.170
Размер потока : 695 Мбайт (93%)
Библиотека кодирования : x264 core 152 r2851kMod ba24899
Настройки программы : cabac=1 / ref=10 / deblock=1:-3:-3 / analyse=0x3:0x133 / me=umh / subme=11 / psy=1 / fade_compensate=0.00 / psy_rd=1.00:0.10 / mixed_ref=1 / me_range=32 / chroma_me=1 / trellis=2 / 8x8dct=1 / cqm=0 / deadzone=21,11 / fast_pskip=0 / chroma_qp_offset=-3 / threads=6 / lookahead_threads=1 / sliced_threads=0 / nr=0 / decimate=0 / interlaced=0 / bluray_compat=0 / constrained_intra=0 / bframes=10 / b_pyramid=2 / b_adapt=2 / b_bias=0 / direct=3 / weightb=1 / open_gop=0 / weightp=2 / keyint=240 / keyint_min=23 / scenecut=40 / intra_refresh=0 / rc_lookahead=40 / rc=2pass / mbtree=1 / bitrate=1000 / ratetol=1.0 / qcomp=0.60 / qpmin=0 / qpmax=69 / qpstep=4 / cplxblur=20.0 / qblur=0.5 / vbv_maxrate=50000 / vbv_bufsize=62500 / nal_hrd=none / filler=0 / ip_ratio=1.40 / aq=3:1.00
Default : Да
Forced : Нет
Аудио
Идентификатор : 2
Формат : AAC
Формат/Информация : Advanced Audio Codec
Профиль формата : LC
Идентификатор кодека : A_AAC
Продолжительность : 1 ч. 37 м.
Битрейт : 72,0 Кбит/сек
Каналы : 2 канала
Расположение каналов : Front: L R
Частота : 48,0 КГц
Частота кадров : 46,875 кадров/сек (1024 SPF)
Метод сжатия : С потерями
Задержка видео : 9 мс.
Размер потока : 50,0 Мбайт (7%)
Default : Да
Forced : Нет
Текст #1
Идентификатор : 3
Формат : UTF-8
Идентификатор кодека : S_TEXT/UTF8
Идентификатор кодека/Информация : UTF-8 Plain Text
Продолжительность : 1 ч. 31 м.
Битрейт : 52 бит/сек
ElementCount : 542
Размер потока : 35,2 Кбайт (0%)
Заголовок : Full Rus
Язык : Russian
Default : Нет
Forced : Нет
Текст #2
Идентификатор : 4
Формат : UTF-8
Идентификатор кодека : S_TEXT/UTF8
Идентификатор кодека/Информация : UTF-8 Plain Text
Продолжительность : 1 ч. 30 м.
Битрейт : 40 бит/сек
ElementCount : 875
Размер потока : 26,6 Кбайт (0%)
Заголовок : Full Eng
Язык : English
Default : Нет
Forced : Нет
Меню
00:00:00.000 : :Start
00:06:49.742 : :"Where's the cave?"
00:10:57.698 : :Cave Divers
00:16:57.725 : :To the Carpathians
00:23:22.734 : :The Plan
00:30:50.723 : :Descent
00:37:44.720 : :Scouts
00:42:09.610 : :In the Water
00:49:31.093 : :Chewed
00:55:25.363 : :"We are the rescue team."
01:00:03.224 : :Jack Attack
01:07:57.031 : :Back in the Food Chain
01:14:43.729 : :A Current
01:19:21.965 : :A Serious Death Wish
01:26:25.388 : :"It's over."

Скриншоты


[Цитировать]



Показать сообщения:    

Текущее время: 19-Фев 15:57

Часовой пояс: UTC + 6


Вы не можете начинать темы
Вы не можете отвечать на сообщения
Вы не можете редактировать свои сообщения
Вы не можете удалять свои сообщения
Вы не можете голосовать в опросах
Вы не можете прикреплять файлы к сообщениям
Вы не можете скачивать файлы

!ВНИМАНИЕ!
Сайт не предоставляет электронные версии произведений, а занимается лишь коллекционированием и каталогизацией ссылок, присылаемых и публикуемых на форуме нашими читателями. Если вы являетесь правообладателем какого-либо представленного материала и не желаете, чтобы ссылка на него находилась в нашем каталоге, свяжитесь с нами, и мы незамедлительно удалим ее. Файлы для обмена на трекере предоставлены пользователями сайта, и администрация не несет ответственности за их содержание. Просьба не заливать файлы, защищенные авторскими правами, а также файлы нелегального содержания!