[ Сегодня идет свободное скачивание без начисления Download ]


Статистика раздачи
Скачал: [ 4 ]
 
   
 
 
 
 
Пираньи / Piranha (2010) HDRip-AVC Информация о фильме:
Название: Пираньи
Оригинальное название: Piranha
Год выхода: 2010
Жанр: ужасы, триллер, комедия
Режиссер: Александр Ажа
В главных ролях: Элизабет Шу, Стивен Р. МакКуин, Джерри О’Коннелл, Ричард Дрейфусс, Винг Рэймс, Кристофер Ллойд, Элай Рот, Коуди Лонго, Джессика Зор, Келли Брук
О фильме :
У берегов озера Виктория в Аризоне происходят подземные толчки, в результате которых на дне водоема образуется разлом. Он открывает проход доисторическим хищным чудовищам – кровожадным пираньям. Это происходит как раз перед тем, как тысячи американских выпускников съезжаются к озеру, чтобы провести здесь каникулы. Первым о смертельной угрозе узнает местный шериф Форрестер, который обнаруживает труп рыбака, обглоданный пираньями. Герой пытается предотвратить дальнейшие жертвы и объявить чрезвычайное положение, но разгоряченные парни и девушки не собираются покидать место отдыха. Они еще не подозревают, насколько кровавая расправа их ждет в водах озера Виктория…

Выпущено: США
Продолжительность: 01:28:22
Перевод: Профессиональный (полное дублирование)
Файл
Формат: MKV
Качество: HDRip-AVC
Видео: MPEG-4 AVC, 768x320, ~ 1103 Кбит/с
Аудио: AAC-LC, 2 ch, ~ 76 Кбит/с
Субтитры: Русские, английские

MI

Общее
Уникальный идентификатор : 251249448582605060530364800112117509880 (0xBD04E2371F59AF54B323B57C90516EF8)
Полное имя : D:MOVIESPirani.2010.ExKinoRay.mkv
Формат : Matroska
Версия формата : Version 4 / Version 2
Размер файла : 746 Мбайт
Продолжительность : 1 ч. 28 м.
Общий поток : 1181 Кбит/сек
Дата кодирования : UTC 2017-12-27 19:16:45
Программа кодирования : mkvmerge v15.0.0 ('Duel with the Devil') 64-bit
Библиотека кодирования : libebml v1.3.5 + libmatroska v1.4.5
Видео
Идентификатор : 1
Формат : AVC
Формат/Информация : Advanced Video Codec
Профиль формата : High@L4.1
Параметр CABAC формата : Да
Параметр RefFrames формата : 10 кадров
Идентификатор кодека : V_MPEG4/ISO/AVC
Продолжительность : 1 ч. 28 м.
Битрейт : 1103 Кбит/сек
Ширина : 768 пикселей
Высота : 320 пикселей
Соотношение сторон : 2,40:1
Режим частоты кадров : Постоянный
Частота кадров : 23,976 (24000/1001) кадра/сек
Цветовое пространство : YUV
Субдискретизация насыщенности : 4:2:0
Битовая глубина : 8 бит
Тип развёртки : Прогрессивная
Бит/(Пиксели*Кадры) : 0.187
Размер потока : 697 Мбайт (93%)
Библиотека кодирования : x264 core 152 r2851 ba24899
Настройки программы : cabac=1 / ref=10 / deblock=1:-3:-3 / analyse=0x3:0x133 / me=umh / subme=11 / psy=1 / psy_rd=1.00:0.14 / mixed_ref=1 / me_range=32 / chroma_me=1 / trellis=2 / 8x8dct=1 / cqm=0 / deadzone=21,11 / fast_pskip=0 / chroma_qp_offset=-3 / threads=6 / lookahead_threads=1 / sliced_threads=0 / nr=0 / decimate=0 / interlaced=0 / bluray_compat=0 / constrained_intra=0 / bframes=10 / b_pyramid=2 / b_adapt=2 / b_bias=0 / direct=3 / weightb=1 / open_gop=0 / weightp=2 / keyint=240 / keyint_min=23 / scenecut=40 / intra_refresh=0 / rc_lookahead=40 / rc=2pass / mbtree=0 / bitrate=1103 / ratetol=1.0 / qcomp=0.60 / qpmin=0 / qpmax=69 / qpstep=4 / cplxblur=20.0 / qblur=0.5 / vbv_maxrate=50000 / vbv_bufsize=62500 / nal_hrd=none / filler=0 / ip_ratio=1.40 / pb_ratio=1.30 / aq=1:1.00
Default : Да
Forced : Нет
Аудио
Идентификатор : 2
Формат : AAC
Формат/Информация : Advanced Audio Codec
Профиль формата : LC
Идентификатор кодека : A_AAC
Продолжительность : 1 ч. 28 м.
Битрейт : 76,0 Кбит/сек
Каналы : 2 канала
Расположение каналов : Front: L R
Частота : 48,0 КГц
Частота кадров : 46,875 кадров/сек (1024 SPF)
Метод сжатия : С потерями
Задержка видео : 9 мс.
Размер потока : 48,0 Мбайт (6%)
Default : Да
Forced : Нет
Текст #1
Идентификатор : 3
Формат : UTF-8
Идентификатор кодека : S_TEXT/UTF8
Идентификатор кодека/Информация : UTF-8 Plain Text
Продолжительность : 1 ч. 21 м.
Битрейт : 90 бит/сек
ElementCount : 1026
Размер потока : 54,5 Кбайт (0%)
Язык : Russian
Default : Нет
Forced : Нет
Текст #2
Идентификатор : 4
Формат : UTF-8
Идентификатор кодека : S_TEXT/UTF8
Идентификатор кодека/Информация : UTF-8 Plain Text
Продолжительность : 1 ч. 20 м.
Битрейт : 44 бит/сек
ElementCount : 1082
Размер потока : 26,2 Кбайт (0%)
Язык : English
Default : Нет
Forced : Нет
Меню
00:00:00.000 : :Chapter 01
00:07:22.817 : :Chapter 02
00:13:04.657 : :Chapter 03
00:20:40.864 : :Chapter 04
00:30:20.068 : :Chapter 05
00:38:55.791 : :Chapter 06
00:45:19.341 : :Chapter 07
00:51:20.786 : :Chapter 08
01:01:22.095 : :Chapter 09
01:08:05.872 : :Chapter 10
01:16:33.463 : :Chapter 11
01:22:11.718 : :Chapter 12
01:28:21.587 : :Chapter 13

Скриншоты


[Цитировать]



Показать сообщения:    

Текущее время: 21-Фев 01:38

Часовой пояс: UTC + 6


Вы не можете начинать темы
Вы не можете отвечать на сообщения
Вы не можете редактировать свои сообщения
Вы не можете удалять свои сообщения
Вы не можете голосовать в опросах
Вы не можете прикреплять файлы к сообщениям
Вы не можете скачивать файлы

!ВНИМАНИЕ!
Сайт не предоставляет электронные версии произведений, а занимается лишь коллекционированием и каталогизацией ссылок, присылаемых и публикуемых на форуме нашими читателями. Если вы являетесь правообладателем какого-либо представленного материала и не желаете, чтобы ссылка на него находилась в нашем каталоге, свяжитесь с нами, и мы незамедлительно удалим ее. Файлы для обмена на трекере предоставлены пользователями сайта, и администрация не несет ответственности за их содержание. Просьба не заливать файлы, защищенные авторскими правами, а также файлы нелегального содержания!