[ Сегодня идет свободное скачивание без начисления Download ]


Статистика раздачи
Скачал: [ 10 ]
 
   
 
 
 
 
Иностранец / The Foreigner
«Иногда месть - это лучшая справедливость»
Год выпуска: 2017
Страна: Великобритания, Китай, США
Производство: Arthur Sarkissian Productions, Entertainer Production Company. The, Huayi Brothers, Robert Simonds Company, The, SR Media, thefyzz, Wanda Media Co.
Жанр: Боевик, триллер, драма, криминал, детектив
Продолжительность: 01:53:52
Режиссёр: Мартин Кэмпбелл
В ролях: Джеки Чан, Пирс Броснан, Майкл МакЭлхаттон, Тао Лю, Чарли Мёрфи, Орла Брэйди, Кэти Льюнг, Рэй Фиарон, Руфус Джонс, Марк Тэнди
Перевод: Профессиональный (полное дублирование)[iTunes] + Оригинал (английский)
Субтитры: Английские
Описание: Бывший спецагент, ветеран вьетнамской войны Цюань давно сложил оружие и завел мирную жизнь. Но после того, как в теракте прямо на глазах погибает его дочь-подросток, видя, что власти не спешат разыскивать преступников, Цюань сам начинает поиск убийцы. Он пойдет на все, чтобы совершить праведное возмездие…

Релиз группа:
Формат: MKV
Качество: BDRip 1080p / 60 FPS
Видео кодек: MPEG-4 AVC
Аудио кодек: AС3, DTS
Видео: 1920x804 (2.40:1), 59.940 fps, MPEG-4 AVC ~ 17.0 Mbps avg, 0.184 bit/pixel
Аудио#1: AC3, 48 kHz, 6 ch, ~ 384.00 kbps avg | Профессиональный (полное дублирование) | iTunes
Аудио#2: DTS, 48 kHz, 6 ch, ~ 1509 kbps avg | Оригинал (английский)
Дата премьеры (мир): 24 сентября 2017
Дата премьеры (РФ): 30 ноября 2017, «Парадиз»

MI

General
Unique ID                      : 172894019095777870593272817871613411778 (0x82122D469440672A8E790AE8794941C2)
Complete name                  : F:Готовые торрентыИностранец BDRip 1080p 60fps.mkv
Format                         : Matroska
Format version                 : Version 4 / Version 2
File size                      : 14.7 GiB
Duration                       : 1 h 53 min
Overall bit rate               : 18.5 Mb/s
Movie name                     : The Foreigner (2017) by Tiberiumsun69
Encoded date                   : UTC 2018-01-01 06:18:30
Writing application            : mkvmerge v18.0.0 ('Apricity') 64-bit
Writing library                : libebml v1.3.5 + libmatroska v1.4.8
Video
ID                             : 1
Format                         : AVC
Format/Info                    : Advanced Video Codec
Format profile                 : High@L4.2
Format settings, CABAC         : Yes
Format settings, RefFrames     : 4 frames
Codec ID                       : V_MPEG4/ISO/AVC
Duration                       : 1 h 53 min
Bit rate mode                  : Constant
Bit rate                       : 17.0 Mb/s
Width                          : 1 920 pixels
Height                         : 804 pixels
Display aspect ratio           : 2.40:1
Frame rate mode                : Constant
Frame rate                     : 59.940 (60000/1001) FPS
Standard                       : NTSC
Color space                    : YUV
Chroma subsampling             : 4:2:0
Bit depth                      : 8 bits
Scan type                      : Progressive
Bits/(Pixel*Frame)             : 0.184
Stream size                    : 13.2 GiB (90%)
Language                       : English
Default                        : Yes
Forced                         : No
Color range                    : Limited
Color primaries                : BT.709
Transfer characteristics       : BT.709
Matrix coefficients            : BT.709
Audio #1
ID                             : 2
Format                         : AC-3
Format/Info                    : Audio Coding 3
Format settings, Endianness    : Big
Codec ID                       : A_AC3
Duration                       : 1 h 53 min
Bit rate mode                  : Constant
Bit rate                       : 384 kb/s
Channel(s)                     : 6 channels
Channel positions              : Front: L C R, Side: L R, LFE
Sampling rate                  : 48.0 kHz
Frame rate                     : 31.250 FPS (1536 SPF)
Bit depth                      : 16 bits
Compression mode               : Lossy
Stream size                    : 313 MiB (2%)
Language                       : Russian
Service kind                   : Complete Main
Default                        : Yes
Forced                         : No
Audio #2
ID                             : 3
Format                         : DTS
Format/Info                    : Digital Theater Systems
Mode                           : 16
Format settings, Endianness    : Big
Codec ID                       : A_DTS
Duration                       : 1 h 53 min
Bit rate mode                  : Constant
Bit rate                       : 1 509 kb/s
Channel(s)                     : 6 channels
Channel positions              : Front: L C R, Side: L R, LFE
Sampling rate                  : 48.0 kHz
Frame rate                     : 93.750 FPS (512 SPF)
Bit depth                      : 24 bits
Compression mode               : Lossy
Stream size                    : 1.20 GiB (8%)
Language                       : English
Default                        : No
Forced                         : No
Text
ID                             : 4
Format                         : UTF-8
Codec ID                       : S_TEXT/UTF8
Codec ID/Info                  : UTF-8 Plain Text
Duration                       : 1 h 44 min
Bit rate                       : 52 b/s
Count of elements              : 1212
Stream size                    : 40.3 KiB (0%)
Language                       : English
Default                        : No
Forced                         : No
Menu
00:00:00.000                   : en:00:00:00.000
00:08:19.541                   : en:00:08:19.541
00:15:49.574                   : en:00:15:49.574
00:21:47.765                   : en:00:21:47.765
00:27:04.164                   : en:00:27:04.164
00:32:09.511                   : en:00:32:09.511
00:35:24.164                   : en:00:35:24.164
00:38:30.934                   : en:00:38:30.934
00:43:50.169                   : en:00:43:50.169
00:47:38.189                   : en:00:47:38.189
00:54:10.497                   : en:00:54:10.497
01:01:42.324                   : en:01:01:42.324
01:08:07.333                   : en:01:08:07.333
01:14:14.033                   : en:01:14:14.033
01:18:42.927                   : en:01:18:42.927
01:23:26.877                   : en:01:23:26.877
01:29:18.812                   : en:01:29:18.812
01:38:55.012                   : en:01:38:55.012
01:43:45.928                   : en:01:43:45.928
01:47:09.298                   : en:01:47:09.298

[Цитировать]



Показать сообщения:    

Текущее время: 23-Фев 18:44

Часовой пояс: UTC + 6


Вы не можете начинать темы
Вы не можете отвечать на сообщения
Вы не можете редактировать свои сообщения
Вы не можете удалять свои сообщения
Вы не можете голосовать в опросах
Вы не можете прикреплять файлы к сообщениям
Вы не можете скачивать файлы

!ВНИМАНИЕ!
Сайт не предоставляет электронные версии произведений, а занимается лишь коллекционированием и каталогизацией ссылок, присылаемых и публикуемых на форуме нашими читателями. Если вы являетесь правообладателем какого-либо представленного материала и не желаете, чтобы ссылка на него находилась в нашем каталоге, свяжитесь с нами, и мы незамедлительно удалим ее. Файлы для обмена на трекере предоставлены пользователями сайта, и администрация не несет ответственности за их содержание. Просьба не заливать файлы, защищенные авторскими правами, а также файлы нелегального содержания!