[ Сегодня идет свободное скачивание без начисления Download ]


Статистика раздачи
Качаю: [ 2 ]
Скачал: [ 3 ]
 
   
 
 
 
 
Мумия возвращается / The Mummy Returns (2001) BDRemux 2160p | 4K Информация о фильме
Название: Мумия возвращается
Оригинальное название: The Mummy Returns
Год выхода: 2001
Жанр: Приключения, фэнтези, мистика, ужасы, боевик, триллер, ремейк
Режиссер: Стивен Соммерс
В ролях: Брендан Фрейзер, Рэйчел Вайз, Джон Хана, Арнольд Вослу, Одед Фер, Дуэйн Джонсон, Фредди Боат, Патрисия Веласкес, Алан Армстронг, Адевале Акиннуойе-Агбадже
О фильме:
Прошло десять лет… Наш отважный герой, искатель приключений Рик О`Конелл, теперь богат, счастливо женат на прекрасной Эвелин и воспитывает своего восьмилетнего сына Алекса. Но злой рок не дает очаровательной семье О`Конеллов насладиться спокойной жизнью. Зловещий жрец Имхотеп снова восстал из мертвых! Теперь у Рика, Эвелин и малютки Алекса есть всего семь дней, чтобы спасти мир…

Страна: США
Студия: Universal Pictures
Продолжительность: 02:09:32
Перевод(ы):
#1: Дублированный
#2: Профессиональный многоголосый | BD CEE
#3: Провессиональный многоголосый | Первый Канал/СТС/РЕН-ТВ
#4: Профессиональный двухголосый | Universal Channel/SDI Media
#5: Авторский | Гаврилов
#6: Авторский | Визгунов
#7: Авторский | Дольский
Файл
Качество: BDRemux 2160p
Видео: MPEG-H HEVC HDR Video, 3840x2160, 52.0 Mbit/s, 23.976 fps
Звук:
Аудио #01: 48 kHz, DTS, 5.1, 1510 Kbps | Дублированный | RUS
Аудио #02: 48 kHz, AC3, 5.1, 448 Kbps | BD CEE | RUS
Аудио #03: 48 kHz, AC3, 2.0, 192 Kbps | Первый Канал/СТС/РЕН-ТВ | RUS
Аудио #04: 48 kHz, AC3, 2.0, 192 Kbps | Universal Channel/SDI Media | RUS
Аудио #05: 48 kHz, DTS, 5.1, 755 Kbps | Гаврилов | RUS
Аудио #06: 48 kHz, AC3, 2.0, 192 Kbps | Дольский | RUS
Аудио #07: 48 kHz, AC3, 2.0, 192 Kbps | Визгунов | RUS
Аудио #08: 48 kHz, DTS-HD MA, 7.1, 8365 Kbps | Оригинал | ENG
Субтитры: Русские (full), английские

MI

General
Unique ID : 42154009826134614302334689012325633789 (0x1FB691259A2C60BDA345A12CAB9D4EFD)
Complete name : G:VideoSSDThe.Mummy.Return.2001.BDREMUX.2160p.4K.UltraHD.HEVC.HDR.ExKinoRay.mkv
Format : Matroska
Format version : Version 4 / Version 2
File size : 57.7 GiB
Duration : 2 h 9 min
Overall bit rate : 63.8 Mb/s
Movie name : The Mummy Returns 2001 from ExKinoRay
Encoded date : UTC 2018-01-08 01:04:34
Writing application : mkvmerge v19.0.0 ('Brave Captain') 64-bit
Writing library : libebml v1.3.5 + libmatroska v1.4.8
Video
ID : 1
Format : HEVC
Format/Info : High Efficiency Video Coding
Format profile : Main 10@L5.1@High
Codec ID : V_MPEGH/ISO/HEVC
Duration : 2 h 9 min
Bit rate : 52.0 Mb/s
Width : 3 840 pixels
Height : 2 160 pixels
Display aspect ratio : 16:9
Frame rate mode : Constant
Frame rate : 23.976 (24000/1001) FPS
Color space : YUV
Chroma subsampling : 4:2:0 (Type 2)
Bit depth : 10 bits
Bits/(Pixel*Frame) : 0.261
Stream size : 47.0 GiB (81%)
Writing library : ATEME Titan File 3.7.9 (4.7.9.0)
Language : English
Default : Yes
Forced : No
Color range : Limited
Color primaries : BT.2020
Transfer characteristics : PQ
Matrix coefficients : BT.2020 non-constant
Mastering display color pri : R: x=0.680000 y=0.320000, G: x=0.265000 y=0.690000, B: x=0.150000 y=0.060000, White point: x=0.312700 y=0.329000
Mastering display luminance : min: 0.0050 cd/m2, max: 1000.0000 cd/m2
Maximum Content Light Level : 984 cd/m2
Maximum Frame-Average Light : 302 cd/m2
Audio #1
ID : 2
Format : DTS
Format/Info : Digital Theater Systems
Codec ID : A_DTS
Duration : 2 h 9 min
Bit rate mode : Constant
Bit rate : 1 510 kb/s
Channel(s) : 6 channels
Channel positions : Front: L C R, Side: L R, LFE
Sampling rate : 48.0 kHz
Frame rate : 93.750 FPS (512 SPF)
Bit depth : 24 bits
Compression mode : Lossy
Stream size : 1.37 GiB (2%)
Title : Dub
Language : Russian
Default : Yes
Forced : No
Audio #2
ID : 3
Format : AC-3
Format/Info : Audio Coding 3
Codec ID : A_AC3
Duration : 2 h 9 min
Bit rate mode : Constant
Bit rate : 448 kb/s
Channel(s) : 6 channels
Channel positions : Front: L C R, Side: L R, LFE
Sampling rate : 48.0 kHz
Frame rate : 31.250 FPS (1536 SPF)
Bit depth : 16 bits
Compression mode : Lossy
Stream size : 415 MiB (1%)
Title : MVO [BD CEE]
Language : Russian
Service kind : Complete Main
Default : No
Forced : No
Audio #3
ID : 4
Format : AC-3
Format/Info : Audio Coding 3
Codec ID : A_AC3
Duration : 2 h 9 min
Bit rate mode : Constant
Bit rate : 192 kb/s
Channel(s) : 2 channels
Channel positions : Front: L R
Sampling rate : 48.0 kHz
Frame rate : 31.250 FPS (1536 SPF)
Bit depth : 16 bits
Compression mode : Lossy
Stream size : 178 MiB (0%)
Title : MVO [Первый Канал/СТС/РЕН-ТВ]
Language : Russian
Service kind : Complete Main
Default : No
Forced : No
Audio #4
ID : 5
Format : AC-3
Format/Info : Audio Coding 3
Codec ID : A_AC3
Duration : 2 h 9 min
Bit rate mode : Constant
Bit rate : 192 kb/s
Channel(s) : 2 channels
Channel positions : Front: L R
Sampling rate : 48.0 kHz
Frame rate : 31.250 FPS (1536 SPF)
Bit depth : 16 bits
Compression mode : Lossy
Stream size : 178 MiB (0%)
Title : DVO [Universal Channel/SDI Media]
Language : Russian
Service kind : Complete Main
Default : No
Forced : No
Audio #5
ID : 6
Format : DTS
Format/Info : Digital Theater Systems
Format profile : ES Matrix / Core
Codec ID : A_DTS
Duration : 2 h 9 min
Bit rate mode : Constant
Bit rate : 755 kb/s
Channel(s) : 7 channels / 6 channels
Channel positions : Front: L C R, Side: L R, Back: C, LFE / Front: L C R, Side: L R, LFE
Sampling rate : 48.0 kHz
Frame rate : 93.750 FPS (512 SPF)
Bit depth : 24 bits
Compression mode : Lossy
Stream size : 700 MiB (1%)
Title : AVO [Gavrilov]
Language : Russian
Default : No
Forced : No
Audio #6
ID : 7
Format : AC-3
Format/Info : Audio Coding 3
Codec ID : A_AC3
Duration : 2 h 9 min
Bit rate mode : Constant
Bit rate : 192 kb/s
Channel(s) : 2 channels
Channel positions : Front: L R
Sampling rate : 48.0 kHz
Frame rate : 31.250 FPS (1536 SPF)
Bit depth : 16 bits
Compression mode : Lossy
Stream size : 178 MiB (0%)
Title : AVO [Dolsky]
Language : Russian
Service kind : Complete Main
Default : No
Forced : No
Audio #7
ID : 8
Format : AC-3
Format/Info : Audio Coding 3
Codec ID : A_AC3
Duration : 2 h 9 min
Bit rate mode : Constant
Bit rate : 192 kb/s
Channel(s) : 2 channels
Channel positions : Front: L R
Sampling rate : 48.0 kHz
Frame rate : 31.250 FPS (1536 SPF)
Bit depth : 16 bits
Compression mode : Lossy
Stream size : 178 MiB (0%)
Title : AVO [Vizgunov]
Language : Russian
Service kind : Complete Main
Default : No
Forced : No
Audio #8
ID : 9
Format : DTS
Format/Info : Digital Theater Systems
Format profile : X / MA / Core
Codec ID : A_DTS
Duration : 2 h 9 min
Bit rate mode : Variable / Variable / Constant
Bit rate : 8 365 kb/s / 8 365 kb/s / 1 509 kb/s
Channel(s) : Object Based / 8 channels / 6 channels
Channel positions : Object Based / Front: L C R, Side: L R, Back: L R, LFE / Front: L C R, Side: L R, LFE
Sampling rate : / 48.0 kHz / 48.0 kHz
Frame rate : 93.750 FPS (512 SPF)
Bit depth : / 24 bits / 24 bits
Compression mode : / Lossless / Lossy
Stream size : 7.57 GiB (13%)
Title : Original
Language : English
Default : No
Forced : No
Text #1
ID : 10
Format : UTF-8
Codec ID : S_TEXT/UTF8
Codec ID/Info : UTF-8 Plain Text
Duration : 2 h 1 min
Bit rate : 57 b/s
Count of elements : 924
Stream size : 51.0 KiB (0%)
Title : Full
Language : Russian
Default : No
Forced : No
Text #2
ID : 11
Format : UTF-8
Codec ID : S_TEXT/UTF8
Codec ID/Info : UTF-8 Plain Text
Duration : 2 h 7 min
Bit rate : 32 b/s
Count of elements : 928
Stream size : 30.1 KiB (0%)
Title : Full
Language : English
Default : No
Forced : No
Menu
00:00:00.000 : en:Chapter 1
00:04:40.488 : en:Chapter 2
00:10:02.518 : en:Chapter 3
00:13:32.394 : en:Chapter 4
00:17:02.896 : en:Chapter 5
00:23:19.773 : en:Chapter 6
00:26:16.157 : en:Chapter 7
00:35:24.247 : en:Chapter 8
00:42:00.684 : en:Chapter 9
00:46:50.724 : en:Chapter 10
00:56:02.150 : en:Chapter 11
01:06:36.409 : en:Chapter 12
01:16:59.656 : en:Chapter 13
01:27:32.664 : en:Chapter 14
01:35:26.637 : en:Chapter 15
01:42:43.073 : en:Chapter 16
01:47:42.789 : en:Chapter 17
01:51:19.839 : en:Chapter 18
01:53:25.381 : en:Chapter 19
02:01:48.175 : en:Chapter 20

[Цитировать]



Показать сообщения:    

Текущее время: 22-Янв 16:29

Часовой пояс: UTC + 6


Вы не можете начинать темы
Вы не можете отвечать на сообщения
Вы не можете редактировать свои сообщения
Вы не можете удалять свои сообщения
Вы не можете голосовать в опросах
Вы не можете прикреплять файлы к сообщениям
Вы не можете скачивать файлы

!ВНИМАНИЕ!
Сайт не предоставляет электронные версии произведений, а занимается лишь коллекционированием и каталогизацией ссылок, присылаемых и публикуемых на форуме нашими читателями. Если вы являетесь правообладателем какого-либо представленного материала и не желаете, чтобы ссылка на него находилась в нашем каталоге, свяжитесь с нами, и мы незамедлительно удалим ее. Файлы для обмена на трекере предоставлены пользователями сайта, и администрация не несет ответственности за их содержание. Просьба не заливать файлы, защищенные авторскими правами, а также файлы нелегального содержания!