[ Сегодня идет свободное скачивание без начисления Download ]


Статистика раздачи
Качаю: [ 1 ]
Скачал: [ 8 ]
 
   
 
 
 
 
--Хардкор / Hardcore Henry (2015) BDRip 1080p | 60 fps-- Год выпуска: 2015
Страна: Россия, США
Жанр: боевик, фантастика
Продолжительность: 01:36:50
Перевод: Dub / iTunes, AVO, Original
Субтитры: Английские (полные), Английские (SHD)
Режиссер: Илья Найшуллер
В ролях: Шарлто Копли, Данила Козловский, Хейли Беннетт, Андрей Дементьев, Сергей Шнуров, Кирилл Серебренников, Александр Паль, Светлана Устинова, Даша Чаруша, Равшана Куркова, Тим Рот
Описание:
Прекрасная супружеская жизнь рядом с очаровательной Эстель — это все, что помнит главный герой после того, как просыпается в неизвестной научной лаборатории, где в чувства его приводит собственная жена. Но супруга тут же оказывается похищенной, и ничего не понимающий главный герой Генри уже вынужден преследовать монстра Акана, который украл его жену.
Теперь ради достижения цели Генри готов на многое. Но позже оказывается, что не только он один является врагом для Акана. У подозрительного Джимми тоже свои планы на злодея. Теперь вместе ребятам предстоит спасти Эстель и предотвратить попытку задействовать армию киборгов в борьбе с человечеством. Им предстоит бороться с самим воплощением зла.

Качество: BDRip 1080p / 60 FPS by Tiberiumsun69
Формат: MKV
Видео кодек: H.264
Аудио кодек: AC3
Видео: AVC, 1920x1036 (1.85:1), 18000 kbps, 60.00 fps , 0.151 bpp
Аудио#1: AC3 / 5.1 ch / 48 kHz / 384 kbps / 16 bit | Dub - (iTunes)
Аудио#2: AC3 / 5.1 ch / 48 kHz / 384 kbps / 16 bit | Dub - (uncensored)
Аудио#3: AC3 / 5.1 ch / 48 kHz / 384 kbps / 16 bit | AVO - Goblin
Аудио#5: AC3 / 5.1 ch / 48 kHz / 384 kbps / 16 bit | AVO - Nemahov
Аудио#6: DTS / 5.1 ch / 48 kHz / 1536 kbps / 24 bit | AVO - A.KIREEV
Аудио#7: DTS / 5.1 ch / 48 kHz / 1510 kbps / 24 bit | Original

MediaInfo

General
Unique ID : 262196369750806677163986035431654223030 (0xC5412F196584674766064DF05F7EECB6)
Complete name : F:\Торренты\Хардкор BDRip 1080p 60fps.mkv
Format : Matroska
Format version : Version 4 / Version 2
File size : 15.1 GiB
Duration : 1 h 36 min
Overall bit rate : 22.3 Mb/s
Movie name : Hardcore Henry (2015) by Tiberiumsun69
Encoded date : UTC 2018-01-08 12:29:35
Writing application : mkvmerge v19.0.0 ('Brave Captain') 64-bit
Writing library : libebml v1.3.5 + libmatroska v1.4.8
Video
ID : 1
Format : AVC
Format/Info : Advanced Video Codec
Format profile : High@L4.2
Format settings : CABAC / 4 Ref Frames
Format settings, CABAC : Yes
Format settings, ReFrames : 4 frames
Codec ID : V_MPEG4/ISO/AVC
Duration : 1 h 36 min
Bit rate mode : Constant
Bit rate : 18.0 Mb/s
Width : 1 920 pixels
Height : 1 036 pixels
Display aspect ratio : 1.85:1
Frame rate mode : Constant
Frame rate : 60.000 FPS
Standard : NTSC
Color space : YUV
Chroma subsampling : 4:2:0
Bit depth : 8 bits
Scan type : Progressive
Bits/(Pixel*Frame) : 0.151
Stream size : 12.0 GiB (79%)
Language : English
Default : Yes
Forced : No
Color range : Limited
Color primaries : BT.709
Transfer characteristics : BT.709
Matrix coefficients : BT.709
Audio #1
ID : 2
Format : AC-3
Format/Info : Audio Coding 3
Codec ID : A_AC3
Duration : 1 h 36 min
Bit rate mode : Constant
Bit rate : 384 kb/s
Channel(s) : 6 channels
Channel positions : Front: L C R, Side: L R, LFE
Sampling rate : 48.0 kHz
Frame rate : 31.250 FPS (1536 SPF)
Bit depth : 16 bits
Compression mode : Lossy
Stream size : 266 MiB (2%)
Title : Дубляж - iTunes
Language : Russian
Service kind : Complete Main
Default : Yes
Forced : No
Audio #2
ID : 3
Format : AC-3
Format/Info : Audio Coding 3
Codec ID : A_AC3
Duration : 1 h 36 min
Bit rate mode : Constant
Bit rate : 384 kb/s
Channel(s) : 2 channels
Channel positions : Front: L R
Sampling rate : 48.0 kHz
Frame rate : 31.250 FPS (1536 SPF)
Bit depth : 16 bits
Compression mode : Lossy
Stream size : 266 MiB (2%)
Title : DUB uncensored
Language : Russian
Service kind : Complete Main
Default : No
Forced : No
Audio #3
ID : 4
Format : AC-3
Format/Info : Audio Coding 3
Codec ID : A_AC3
Duration : 1 h 36 min
Bit rate mode : Constant
Bit rate : 384 kb/s
Channel(s) : 6 channels
Channel positions : Front: L C R, Side: L R, LFE
Sampling rate : 48.0 kHz
Frame rate : 31.250 FPS (1536 SPF)
Bit depth : 16 bits
Compression mode : Lossy
Stream size : 266 MiB (2%)
Title : AVO Goblin
Language : Russian
Service kind : Complete Main
Default : No
Forced : No
Audio #4
ID : 5
Format : AC-3
Format/Info : Audio Coding 3
Codec ID : A_AC3
Duration : 1 h 35 min
Bit rate mode : Constant
Bit rate : 384 kb/s
Channel(s) : 6 channels
Channel positions : Front: L C R, Side: L R, LFE
Sampling rate : 48.0 kHz
Frame rate : 31.250 FPS (1536 SPF)
Bit depth : 16 bits
Compression mode : Lossy
Stream size : 261 MiB (2%)
Title : AVO Nemahov
Language : Russian
Service kind : Complete Main
Default : No
Forced : No
Audio #5
ID : 6
Format : DTS
Format/Info : Digital Theater Systems
Codec ID : A_DTS
Duration : 1 h 36 min
Bit rate mode : Constant
Bit rate : 1 536 kb/s
Channel(s) : 6 channels
Channel positions : Front: L C R, Side: L R, LFE
Sampling rate : 48.0 kHz
Frame rate : 93.750 FPS (512 SPF)
Bit depth : 16 bits
Compression mode : Lossy
Stream size : 1.04 GiB (7%)
Title : AVO-DTS [A.KIREEV]
Language : Russian
Default : No
Forced : No
Audio #6
ID : 7
Format : DTS
Format/Info : Digital Theater Systems
Codec ID : A_DTS
Duration : 1 h 36 min
Bit rate mode : Constant
Bit rate : 1 509 kb/s
Channel(s) : 6 channels
Channel positions : Front: L C R, Side: L R, LFE
Sampling rate : 48.0 kHz
Frame rate : 93.750 FPS (512 SPF)
Bit depth : 24 bits
Compression mode : Lossy
Stream size : 1.02 GiB (7%)
Title : Original
Language : English
Default : No
Forced : No
Text #1
ID : 8
Format : UTF-8
Codec ID : S_TEXT/UTF8
Codec ID/Info : UTF-8 Plain Text
Duration : 1 h 32 min
Bit rate : 28 b/s
Count of elements : 680
Stream size : 19.1 KiB (0%)
Title : Full
Language : English
Default : No
Forced : No
Text #2
ID : 9
Format : UTF-8
Codec ID : S_TEXT/UTF8
Codec ID/Info : UTF-8 Plain Text
Duration : 1 h 32 min
Bit rate : 38 b/s
Count of elements : 1042
Stream size : 26.2 KiB (0%)
Title : SDH
Language : English
Default : No
Forced : No
Menu
00:00:00.000 : :(01)00:00:00:000
00:04:04.493 : :(02)00:04:04:493
00:08:36.640 : :(03)00:08:36:640
00:14:12.934 : :(04)00:14:12:934
00:18:45.332 : :(05)00:18:45:332
00:22:38.815 : :(06)00:22:38:815
00:26:12.237 : :(07)00:26:12:237
00:30:05.345 : :(08)00:30:05:345
00:34:30.193 : :(09)00:34:30:193
00:37:44.427 : :(10)00:37:44:427
00:42:19.536 : :(11)00:42:19:536
00:47:05.405 : :(12)00:47:05:405
00:52:51.083 : :(13)00:52:51:083
00:56:00.481 : :(14)00:56:00:481
01:03:47.824 : :(15)01:03:47:824
01:11:23.988 : :(16)01:11:23:988
01:15:54.881 : :(17)01:15:54:881
01:22:04.667 : :(18)01:22:04:667
01:24:10.045 : :(19)01:24:10:045
01:29:31.113 : :(20)01:29:31:113
01:36:50.554 : :(21)01:36:50:554

[Цитировать]



Показать сообщения:    

Текущее время: 27-Апр 08:24

Часовой пояс: UTC + 6


Вы не можете начинать темы
Вы не можете отвечать на сообщения
Вы не можете редактировать свои сообщения
Вы не можете удалять свои сообщения
Вы не можете голосовать в опросах
Вы не можете прикреплять файлы к сообщениям
Вы не можете скачивать файлы

!ВНИМАНИЕ!
Сайт не предоставляет электронные версии произведений, а занимается лишь коллекционированием и каталогизацией ссылок, присылаемых и публикуемых на форуме нашими читателями. Если вы являетесь правообладателем какого-либо представленного материала и не желаете, чтобы ссылка на него находилась в нашем каталоге, свяжитесь с нами, и мы незамедлительно удалим ее. Файлы для обмена на трекере предоставлены пользователями сайта, и администрация не несет ответственности за их содержание. Просьба не заливать файлы, защищенные авторскими правами, а также файлы нелегального содержания!