[ Сегодня идет свободное скачивание без начисления Download ]


Статистика раздачи
Скачал: [ 1 ]
 
   
 
 
 
 
Мумия / The Mummy (2017) [SDR][4K / BDRip] (2160p) Год выпуска: 2017
Жанр: Ужасы, фэнтези, боевик, приключения
Выпущено: США, Perfect World Pictures, Sean Daniel Company, Universal Pictures
Режиссер: Алекс Куртцман
Продолжительность: 01:50:06
Перевод: Дублированный
Субтитры: Русские, английские, украинские
возраст: 16+
В ролях: Том Круз, Расселл Кроу, Аннабелль Уоллис, София Бутелла, Джейк Джонсон, Кортни Б. Вэнс, Марван Кензари, Саймон Атертон
О фильме: Двое американских разведчиков упоенно ищут древние ценности в иракской глубинке. Вместо обеспеченной старости они находят толпу озлобленных фанатиков с антикварными автоматами, высохшую мумию египетской принцессы в наглухо заваренном саркофаге и половину мировых запасов ртути. Дальнейшие события принимают совсем уж неожиданный оборот - древние мощи оживают и начинают преследовать самого красивого и атлетически сложенного охотника за сокровищами. Как ни странно, объект женского внимания не отвечает взаимностью на аморальные поползновения по морально-этическим убеждениям. И теперь весь мир ощутит на себе всевозрастающую силу абсолютного зла, вырвавшегося из глубин загробного астрала.
Мумия (The Mummy) 2017. Трейлер русский дублированный

Техданные
Качество
: BDRip (2160p)
Видео: MPEG-4 AVC, 66300 Кбит/с, 3840x1600, 23.976 кадр/с
Аудио: Русский (AC3, 6 ch, 448 Кбит/с), (DTS, 6 ch, 768 Кбит/с), украинский (AC3, 2 ch, 192 Кбит/с), английский (TrueHD, 8 ch, 4927 Кбит/с), (AC3, 6 ch, 640 Кбит/с)
Релиз
Мастер 5
Источник: https://torrents-club.org/viewtopic.php?t=107606 _Converted из 10-битного HDR в 8 бит SDR
Профиль формата: High@L5.1_8 ми-битный SDR
Аудио:
#1 - Русский / AC3 / 48 KHz / 5.1 ch / 448 Kbps (Дубляж - Dub (Blu-Ray CEE)
#2 - Русский / DTS / 48 KHz / 5.1 ch / 768 Kbps (Дубляж - Dub (Blu-Ray CEE)
#3 - Украинский / AC3 / 48 KHz / 2 ch / 192 Kbps (Дубляж)
#4 - Английский / AC3 / 48 KHz / 5.1 ch / 640 Kbps (Original - BD)
#4 - Английский / Atmos / TrueHD / 48 KHz / 7.1 ch / 4927 Kbps (Original - BD)
Субтитры:
#1 - Русские Форсированные
#2 - Русские Полные
#3 - Украинские Форсированные (расширенные)
#4 - English Forced
#5 - English Full
#6 - English SDH

MediaInfo:

Общее
Уникальный идентификатор : 215581446322602684229692848237954041819 (0xA22F79EE518624CEB6191ED6AC7587DB)
Полное имя : D:\Новая папкаVid\Новая_Мои раздачи\The.Mummy.2017.2160p.BluRay.x264.8bit.SDR.8bit.UHD.BDRip.x264.Master5.mkv
Формат : Matroska
Версия формата : Version 4 / Version 2
Размер файла : 56,4 Гбайт
Продолжительность : 1 ч. 50 м.
Режим общего битрейта : Переменный
Общий поток : 73,3 Мбит/сек
Название фильма : The.Mummy.2017.2160p.BluRay.x264.8bit.SDR.8bit.UHD.BDRip.x264.Master5
Дата кодирования : UTC 2017-10-31 15:55:50
Программа кодирования : mkvmerge v8.1.0 ('Psychedelic Postcard') 32bit
Библиотека кодирования : libebml v1.3.1 + libmatroska v1.4.2
Обложка : Yes
Attachments : cover.jpg
Видео
Идентификатор : 1
Формат : AVC
Формат/Информация : Advanced Video Codec
Профиль формата : High@L5.1
Параметр CABAC формата : Да
Параметр ReFrames формата : 5 кадров
Идентификатор кодека : V_MPEG4/ISO/AVC
Продолжительность : 1 ч. 50 м.
Битрейт : 66,3 Мбит/сек
Ширина : 3840 пикселей
Высота : 1600 пикселей
Соотношение сторон : 2,40:1
Режим частоты кадров : Постоянный
Частота кадров : 23,976 (24000/1001) кадра/сек
Цветовое пространство : YUV
Субдискретизация насыщенности : 4:2:0
Битовая глубина : 8 бит
Тип развёртки : Прогрессивная
Бит/(Пиксели*Кадры) : 0.450
Размер потока : 51,0 Гбайт (90%)
Заголовок : The.Mummy.2017.2160p.BluRay.x264.8bit.SDR.8bit.UHD.BDRip.x264.Master5
Библиотека кодирования : x264 core 148 r2748 97eaef2
Настройки программы : cabac=1 / ref=5 / deblock=1:-1:-1 / analyse=0x3:0x113 / me=umh / subme=10 / psy=1 / psy_rd=1.00:0.15 / mixed_ref=1 / me_range=48 / chroma_me=1 / trellis=2 / 8x8dct=1 / cqm=0 / deadzone=21,11 / fast_pskip=1 / chroma_qp_offset=-3 / threads=50 / lookahead_threads=4 / sliced_threads=0 / nr=0 / decimate=0 / interlaced=0 / bluray_compat=0 / constrained_intra=0 / bframes=3 / b_pyramid=2 / b_adapt=2 / b_bias=0 / direct=3 / weightb=1 / open_gop=0 / weightp=2 / keyint=250 / keyint_min=23 / scenecut=40 / intra_refresh=0 / rc_lookahead=50 / rc=crf / mbtree=1 / crf=18.0 / qcomp=0.60 / qpmin=0 / qpmax=69 / qpstep=4 / ip_ratio=1.40 / aq=1:1.00
Язык : English
Default : Да
Forced : Нет
Аудио #1
Идентификатор : 2
Формат : Atmos / TrueHD
Идентификатор кодека : A_TRUEHD
Продолжительность : 1 ч. 50 м.
Вид битрейта : Переменный
Битрейт : 4927 Кбит/сек
Максимальный битрейт : 8133 Кбит/сек
Каналы : Object Based / 8 каналов
Расположение каналов : Object Based / Front: L C R, Side: L R, Back: L R, LFE
Частота : / 48,0 КГц
Частота кадров : 1200,000 кадров/сек (40 spf)
Метод сжатия : Без потерь
Задержка видео : 32 мс.
Размер потока : 3,79 Гбайт (7%)
Язык : English
Default : Нет
Forced : Нет
Аудио #2
Идентификатор : 3
Формат : AC-3
Формат/Информация : Audio Coding 3
Расширение режима : CM (complete main)
Параметр Endianness формата : Big
Идентификатор кодека : A_AC3
Продолжительность : 1 ч. 50 м.
Вид битрейта : Постоянный
Битрейт : 192 Кбит/сек
Каналы : 2 канала
Расположение каналов : Front: L R
Частота : 48,0 КГц
Частота кадров : 31,250 кадров/сек (1536 spf)
Метод сжатия : С потерями
Размер потока : 151 Мбайт (0%)
Заголовок : Дубляж
Язык : Ukrainian
Default : Нет
Forced : Нет
Аудио #3
Идентификатор : 4
Формат : AC-3
Формат/Информация : Audio Coding 3
Расширение режима : CM (complete main)
Параметр Endianness формата : Big
Идентификатор кодека : A_AC3
Продолжительность : 1 ч. 50 м.
Вид битрейта : Постоянный
Битрейт : 640 Кбит/сек
Каналы : 6 каналов
Расположение каналов : Front: L C R, Side: L R, LFE
Частота : 48,0 КГц
Частота кадров : 31,250 кадров/сек (1536 spf)
Метод сжатия : С потерями
Размер потока : 504 Мбайт (1%)
Заголовок : Original
Язык : English
Default : Нет
Forced : Нет
Аудио #4
Идентификатор : 11
Формат : DTS
Формат/Информация : Digital Theater Systems
Режим : 16
Параметр Endianness формата : Big
Идентификатор кодека : A_DTS
Продолжительность : 1 ч. 50 м.
Вид битрейта : Постоянный
Битрейт : 768 Кбит/сек
Каналы : 6 каналов
Расположение каналов : Front: L C R, Side: L R, LFE
Частота : 48,0 КГц
Частота кадров : 93,750 кадра/сек (512 spf)
Битовая глубина : 24 бит
Метод сжатия : С потерями
Размер потока : 605 Мбайт (1%)
Заголовок : Dub (Blu-Ray CEE)
Язык : Russian
Default : Нет
Forced : Нет
Аудио #5
Идентификатор : 12
Формат : AC-3
Формат/Информация : Audio Coding 3
Расширение режима : CM (complete main)
Параметр Endianness формата : Big
Идентификатор кодека : A_AC3
Продолжительность : 1 ч. 50 м.
Вид битрейта : Постоянный
Битрейт : 448 Кбит/сек
Каналы : 6 каналов
Расположение каналов : Front: L C R, Side: L R, LFE
Частота : 48,0 КГц
Частота кадров : 31,250 кадров/сек (1536 spf)
Метод сжатия : С потерями
Размер потока : 353 Мбайт (1%)
Заголовок : Dub (Blu-Ray CEE)
Язык : Russian
Default : Да
Forced : Нет
Текст #1
Идентификатор : 5
Формат : UTF-8
Идентификатор кодека : S_TEXT/UTF8
Идентификатор кодека/Информация : UTF-8 Plain Text
Продолжительность : 1 ч. 19 м.
Битрейт : 2 бит/сек
Count of elements : 28
Размер потока : 1,41 Кбайт (0%)
Заголовок : Форсированные
Язык : Russian
Default : Да
Forced : Нет
Текст #2
Идентификатор : 6
Формат : UTF-8
Идентификатор кодека : S_TEXT/UTF8
Идентификатор кодека/Информация : UTF-8 Plain Text
Продолжительность : 1 ч. 39 м.
Битрейт : 64 бит/сек
Count of elements : 1033
Размер потока : 46,9 Кбайт (0%)
Заголовок : Полные
Язык : Russian
Default : Нет
Forced : Нет
Текст #3
Идентификатор : 7
Формат : UTF-8
Идентификатор кодека : S_TEXT/UTF8
Идентификатор кодека/Информация : UTF-8 Plain Text
Продолжительность : 1 ч. 19 м.
Битрейт : 2 бит/сек
Count of elements : 28
Размер потока : 1,34 Кбайт (0%)
Заголовок : Форсированные
Язык : Ukrainian
Default : Нет
Forced : Нет
Текст #4
Идентификатор : 8
Формат : UTF-8
Идентификатор кодека : S_TEXT/UTF8
Идентификатор кодека/Информация : UTF-8 Plain Text
Продолжительность : 56 м.
Битрейт : 1 бит/сек
Count of elements : 22
Размер потока : 507 байт (0%)
Заголовок : Forced
Язык : English
Default : Нет
Forced : Нет
Текст #5
Идентификатор : 9
Формат : UTF-8
Идентификатор кодека : S_TEXT/UTF8
Идентификатор кодека/Информация : UTF-8 Plain Text
Продолжительность : 1 ч. 36 м.
Битрейт : 41 бит/сек
Count of elements : 1081
Размер потока : 29,4 Кбайт (0%)
Заголовок : Full
Язык : English
Default : Нет
Forced : Нет
Текст #6
Идентификатор : 10
Формат : UTF-8
Идентификатор кодека : S_TEXT/UTF8
Идентификатор кодека/Информация : UTF-8 Plain Text
Продолжительность : 1 ч. 37 м.
Битрейт : 49 бит/сек
Count of elements : 1357
Размер потока : 35,4 Кбайт (0%)
Заголовок : SDH
Язык : English
Default : Нет
Forced : Нет
Меню
00:00:00.000 : en:Chapter 1
00:08:18.706 : en:Chapter 2
00:13:18.923 : en:Chapter 3
00:19:31.461 : en:Chapter 4
00:24:40.145 : en:Chapter 5
00:28:54.107 : en:Chapter 6
00:35:41.389 : en:Chapter 7
00:39:36.040 : en:Chapter 8
00:47:00.067 : en:Chapter 9
00:50:57.637 : en:Chapter 10
00:56:49.739 : en:Chapter 11
01:00:43.848 : en:Chapter 12
01:08:58.008 : en:Chapter 13
01:16:03.850 : en:Chapter 14
01:19:38.440 : en:Chapter 15
01:23:16.408 : en:Chapter 16
01:26:26.848 : en:Chapter 17
01:33:34.942 : en:Chapter 18
01:37:02.983 : en:Chapter 19
01:39:47.982 : en:Chapter 20

Скриншоты

[Цитировать]



Показать сообщения:    

Текущее время: 15-Авг 14:59

Часовой пояс: UTC + 6


Вы не можете начинать темы
Вы не можете отвечать на сообщения
Вы не можете редактировать свои сообщения
Вы не можете удалять свои сообщения
Вы не можете голосовать в опросах
Вы не можете прикреплять файлы к сообщениям
Вы не можете скачивать файлы

!ВНИМАНИЕ!
Сайт не предоставляет электронные версии произведений, а занимается лишь коллекционированием и каталогизацией ссылок, присылаемых и публикуемых на форуме нашими читателями. Если вы являетесь правообладателем какого-либо представленного материала и не желаете, чтобы ссылка на него находилась в нашем каталоге, свяжитесь с нами, и мы незамедлительно удалим ее. Файлы для обмена на трекере предоставлены пользователями сайта, и администрация не несет ответственности за их содержание. Просьба не заливать файлы, защищенные авторскими правами, а также файлы нелегального содержания!