[ Сегодня идет свободное скачивание без начисления Download ]


Статистика раздачи
Скачал: [ 13 ]
 
   
 
 
 
 
Три билборда на границе Эббинга, Миссури / Three Billboards Outside Ebbing, Missouri Год выпуска: 2017
Страна: Великобритания, США
Производство: Blueprint Pictures
Жанр: Драма, криминал
Продолжительность: 01:55:20
Режиссёр: Мартин МакДона
В ролях: Фрэнсис МакДорманд, Вуди Харрельсон, Сэм Рокуэлл, Джон Хоукс, Питер Динклэйдж, Калеб Лэндри Джонс, Лукас Хеджес, Эбби Корниш, Керри Кондон, Даррел Бритт-Гибсон
Перевод: Профессиональный (полное дублирование) [Лицензия]+ Оригинал (английский) + Украинский
Субтитры: Русские, английские, украинские
Описание: Спустя несколько месяцев после убийства дочери Милдред Хейс преступники так и не найдены. Отчаявшаяся женщина решается на смелый шаг, арендуя на въезде в город три биллборда с посланием к авторитетному главе полиции Уильяму Уиллоуби. Когда в ситуацию оказывается втянут еще и заместитель шерифа, инфантильный маменькин сынок со склонностью к насилию, офицер Диксон, борьба между Милдред и властями города только усугубляется.

Формат: MKV
Качество: BDRip 1080p
Видео кодек: AVC
Аудио кодек: DTS, AС3
Видео: 1920x808 (2.40:1), 23.976 fps, AVC ~ 9345 kbps avg, 0.251 bit/pixel
Аудио#1: DTS, 48 kHz, 6 ch, ~ 768.00 kbps avg | Профессиональный (полное дублирование)
Аудио#1: DTS, 48 kHz, 6 ch, ~ 1509 kbps avg | Оригинал (английский)
Аудио#1: AC3, 48 kHz, 6 ch, ~ 448.00 kbps avg | Украинский
Дата премьеры (мир): 4 сентября 2017
Дата премьеры (РФ): 1 февраля 2018, «Двадцатый Век Фокс СНГ»

MI

General
Unique ID                      : 195445828087816660366482979122064884643 (0x93097F4DDF55ED3E99DCCF4C2A1383A3)
Complete name                  : F:\Готовые торренты\Three Billboards Outside Ebbing.2O17.D.BDRip.1O8Op.mkv
Format                         : Matroska
Format version                 : Version 2
File size                      : 9.77 GiB
Duration                       : 1h 55mn
Overall bit rate               : 12.1 Mbps
Encoded date                   : UTC 2018-02-15 04:45:55
Writing application            : mkvmerge v8.3.0 ('Over the Horizon') 64bit
Writing library                : libebml v1.3.1 + libmatroska v1.4.2
Video
ID                             : 1
Format                         : AVC
Format/Info                    : Advanced Video Codec
Format profile                 : High@L4.1
Format settings, CABAC         : Yes
Format settings, ReFrames      : 5 frames
Codec ID                       : V_MPEG4/ISO/AVC
Duration                       : 1h 55mn
Bit rate                       : 9 345 Kbps
Width                          : 1 920 pixels
Height                         : 808 pixels
Display aspect ratio           : 2.40:1
Frame rate mode                : Constant
Frame rate                     : 23.976 fps
Color space                    : YUV
Chroma subsampling             : 4:2:0
Bit depth                      : 8 bits
Scan type                      : Progressive
Bits/(Pixel*Frame)             : 0.251
Stream size                    : 7.53 GiB (77%)
Writing library                : x264 core 155 r2901 7d0ff22
Encoding settings              : cabac=1 / ref=5 / deblock=1:0:0 / analyse=0x3:0x133 / me=umh / subme=7 / psy=1 / psy_rd=1.00:0.00 / mixed_ref=1 / me_range=16 / chroma_me=1 / trellis=1 / 8x8dct=1 / cqm=0 / deadzone=21,11 / fast_pskip=0 / chroma_qp_offset=-2 / threads=25 / lookahead_threads=4 / sliced_threads=0 / nr=0 / decimate=1 / interlaced=0 / bluray_compat=0 / constrained_intra=0 / bframes=3 / b_pyramid=2 / b_adapt=1 / b_bias=0 / direct=1 / weightb=1 / open_gop=0 / weightp=2 / keyint=250 / keyint_min=23 / scenecut=40 / intra_refresh=0 / rc_lookahead=40 / rc=2pass / mbtree=1 / bitrate=9345 / ratetol=1.0 / qcomp=0.60 / qpmin=0 / qpmax=69 / qpstep=4 / cplxblur=20.0 / qblur=0.5 / ip_ratio=1.40 / aq=1:1.00
Language                       : English
Default                        : Yes
Forced                         : No
Audio #1
ID                             : 2
Format                         : DTS
Format/Info                    : Digital Theater Systems
Mode                           : 16
Format settings, Endianness    : Big
Codec ID                       : A_DTS
Duration                       : 1h 55mn
Bit rate mode                  : Constant
Bit rate                       : 768 Kbps
Channel(s)                     : 6 channels
Channel positions              : Front: L C R, Side: L R, LFE
Sampling rate                  : 48.0 KHz
Frame rate                     : 93.750 fps (512 spf)
Bit depth                      : 24 bits
Compression mode               : Lossy
Stream size                    : 634 MiB (6%)
Language                       : Russian
Default                        : Yes
Forced                         : No
Audio #2
ID                             : 3
Format                         : DTS
Format/Info                    : Digital Theater Systems
Mode                           : 16
Format settings, Endianness    : Big
Codec ID                       : A_DTS
Duration                       : 1h 55mn
Bit rate mode                  : Constant
Bit rate                       : 1 509 Kbps
Channel(s)                     : 6 channels
Channel positions              : Front: L C R, Side: L R, LFE
Sampling rate                  : 48.0 KHz
Frame rate                     : 93.750 fps (512 spf)
Bit depth                      : 24 bits
Compression mode               : Lossy
Stream size                    : 1.22 GiB (12%)
Language                       : English
Default                        : No
Forced                         : No
Audio #3
ID                             : 4
Format                         : AC-3
Format/Info                    : Audio Coding 3
Mode extension                 : CM (complete main)
Format settings, Endianness    : Big
Codec ID                       : A_AC3
Duration                       : 1h 55mn
Bit rate mode                  : Constant
Bit rate                       : 448 Kbps
Channel(s)                     : 6 channels
Channel positions              : Front: L C R, Side: L R, LFE
Sampling rate                  : 48.0 KHz
Frame rate                     : 31.250 fps (1536 spf)
Compression mode               : Lossy
Stream size                    : 370 MiB (4%)
Language                       : Ukrainian
Default                        : No
Forced                         : No
Text #1
ID                             : 5
Format                         : PGS
Muxing mode                    : zlib
Codec ID                       : S_HDMV/PGS
Codec ID/Info                  : Picture based subtitle format used on BDs/HD-DVDs
Duration                       : 1h 53mn
Bit rate                       : 14.4 Kbps
Count of elements              : 2311
Stream size                    : 11.7 MiB (0%)
Language                       : Russian
Default                        : No
Forced                         : No
Text #2
ID                             : 6
Format                         : PGS
Muxing mode                    : zlib
Codec ID                       : S_HDMV/PGS
Codec ID/Info                  : Picture based subtitle format used on BDs/HD-DVDs
Duration                       : 1h 53mn
Bit rate                       : 21.0 Kbps
Count of elements              : 3477
Stream size                    : 17.0 MiB (0%)
Language                       : English
Default                        : No
Forced                         : No
Text #3
ID                             : 7
Format                         : PGS
Muxing mode                    : zlib
Codec ID                       : S_HDMV/PGS
Codec ID/Info                  : Picture based subtitle format used on BDs/HD-DVDs
Duration                       : 1h 53mn
Bit rate                       : 14.3 Kbps
Count of elements              : 2319
Stream size                    : 11.6 MiB (0%)
Language                       : Ukrainian
Default                        : No
Forced                         : No
Menu
00:00:00.000                   : en:00:00:00.000
00:05:42.092                   : en:00:05:42.092
00:08:56.911                   : en:00:08:56.911
00:12:50.019                   : en:00:12:50.019
00:19:46.644                   : en:00:19:46.644
00:23:43.547                   : en:00:23:43.547
00:27:36.363                   : en:00:27:36.363
00:31:35.769                   : en:00:31:35.769
00:35:08.690                   : en:00:35:08.690
00:40:54.827                   : en:00:40:54.827
00:44:35.715                   : en:00:44:35.715
00:49:18.789                   : en:00:49:18.789
00:55:35.916                   : en:00:55:35.916
00:59:56.134                   : en:00:59:56.134
01:04:09.888                   : en:01:04:09.888
01:10:55.293                   : en:01:10:55.293
01:15:36.699                   : en:01:15:36.699
01:23:08.734                   : en:01:23:08.734
01:27:24.489                   : en:01:27:24.489
01:35:49.702                   : en:01:35:49.702
01:40:32.693                   : en:01:40:32.693
01:44:02.194                   : en:01:44:02.194
01:46:56.910                   : en:01:46:56.910
01:49:55.005                   : en:01:49:55.005

Знаете ли вы, что...

Съёмки проходили в Сильве — это небольшой город в штате Северная Каролина.
Во время перерывов между съемками сцен фильма Вуди Харрельсон часто раздавал автографы и фотографировалcя с местными жителями, которые приходили смотреть на съемки. Однажды, во время продолжительного перерыва Харрельсон сыграл импровизацию на гитаре в музыкальном магазине рядом с полицейским участком.
Фрэнсис МакДорманд поначалу отказалась от главной роли, считая, что персонаж не подходит ей по возрасту, но в конце концов ее убедил муж, Джоэл Коэн, сказав: «Просто заткнись и сделай это».
Мартин МакДона вдохновился на написание сценария фильма после увиденных им билбордов о нераскрытом преступлении, во время путешествия «где-то между Джорджией, Флоридой и Алабамой».

[Цитировать]

Топик был перенесен из форума Новинки кинопроката 2017 (HD Video) в форум Зарубежное кино (HD Video)
D-r Woland_kz



Показать сообщения:    

Текущее время: 12-Дек 16:32

Часовой пояс: UTC + 6


Вы не можете начинать темы
Вы не можете отвечать на сообщения
Вы не можете редактировать свои сообщения
Вы не можете удалять свои сообщения
Вы не можете голосовать в опросах
Вы не можете прикреплять файлы к сообщениям
Вы не можете скачивать файлы

!ВНИМАНИЕ!
Сайт не предоставляет электронные версии произведений, а занимается лишь коллекционированием и каталогизацией ссылок, присылаемых и публикуемых на форуме нашими читателями. Если вы являетесь правообладателем какого-либо представленного материала и не желаете, чтобы ссылка на него находилась в нашем каталоге, свяжитесь с нами, и мы незамедлительно удалим ее. Файлы для обмена на трекере предоставлены пользователями сайта, и администрация не несет ответственности за их содержание. Просьба не заливать файлы, защищенные авторскими правами, а также файлы нелегального содержания!