[ Сегодня идет свободное скачивание без начисления Download ]


Статистика раздачи
Нет
 
   
 
 
 
 
Кровавая барыня [01-16 из 16]
Информация о фильме
Название: Кровавая барыня
Год выпуска: 2018
Страна: Россия
Жанр: История, драма-Перевод: Не требуется [Русский]
Продолжительность: 00:51:59-Режиссер: Егор Анашкин
В ролях: Юлия Снигирь (Дарья Салтыкова), Марта Тимофеева (Дарья Салтыкова в детстве), Федор Лавров (Глеб Салтыков), Сергей Шеховцов (управляющий), Александр Никольский (Локотов), Николай Лунин, Марина Дианова (Хавронья Андреевна Комарова), Сергей Шаталов (Степан), Мария Дубина (Августина), Александр Мухин (палач), Анатолий Узденский, Алексей Шемес-Описание:
История о жизни помещицы Салтыковой, оставшейся в истории под именем Салтычиха. Дарью Салтыкову, известную своими садистскими наклонностями и убившую десятки своих крепостных, называют первым русским маньяком.
-Качество: HDTV 1080p
Формат: MKV
Видео: AVC, 1920x1080 (16:9), 7050 kbps, 25 fps, 0,136 bpp
Аудио: AC3 / 2.0 / 48 kHz / 192 kbps /
-
-

ОтчетМедиаИнфо

General
Unique ID : 222572255061700692988245363511912105606 (0xA771DB69AE4E4B2F900DCBDD7ACD0686)
Complete name : E:запись с твKrovavaya barynya 2018 S 01 2018 HDTV 1080p R.G.GeneralfilmKrovavaya barynya.s01.e01.2018.HDTV 1080p.by.White Smoke.R.G.Generalfilm.mkv
Format : Matroska
Format version : Version 4 / Version 2
File size : 2.61 GiB
Duration : 51 min
Overall bit rate mode : Constant
Overall bit rate : 7 179 kb/s
Movie name : Krovavaya barynya.s01.e01.2018.HDTV 1080p.by.White Smoke.R.G.Generalfilm.mkv
Encoded date : UTC 2018-02-20 18:41:15
Writing application : mkvmerge v6.8.0 ('Theme for Great Cities') 64bit built on Mar 2 2014 21:34:26
Writing library : libebml v1.3.0 + libmatroska v1.4.1
Video
ID : 1
Format : AVC
Format/Info : Advanced Video Codec
Format profile : High@L4.1
Format settings, CABAC : Yes
Format settings, ReFrames : 3 frames
Codec ID : V_MPEG4/ISO/AVC
Duration : 51 min
Bit rate mode : Constant
Bit rate : 7 051 kb/s
Width : 1 920 pixels
Height : 1 080 pixels
Display aspect ratio : 16:9
Frame rate mode : Constant
Frame rate : 25.000 FPS
Standard : PAL
Color space : YUV
Chroma subsampling : 4:2:0
Bit depth : 8 bits
Scan type : Progressive
Bits/(Pixel*Frame) : 0.136
Stream size : 2.49 GiB (95%)
Default : Yes
Forced : No
Color range : Limited
Color primaries : BT.709
Transfer characteristics : BT.709
Matrix coefficients : BT.709
Audio
ID : 2
Format : AC-3
Format/Info : Audio Coding 3
Mode extension : CM (complete main)
Format settings, Endianness : Big
Codec ID : A_AC3
Duration : 51 min
Bit rate mode : Constant
Bit rate : 192 kb/s
Channel(s) : 2 channels
Channel positions : Front: L R
Sampling rate : 48.0 kHz
Frame rate : 31.250 FPS (1536 spf)
Compression mode : Lossy
Stream size : 71.4 MiB (3%)
Default : Yes
Forced : No

Скриншоты

Раздача ведётся путём добавления новых серий

Внимание! Раздача ведётся путём добавления новых серий; при каждом добавлении создаётся новый торрент.
Чтобы начать докачку новой серии, пользователям необходимо сделать следующее:
1. Остановить скачивание;
2. Удалить старый торрент у себя из клиента (старые серии удалять не надо);
3. Скачать новый торрент и запустить его у себя в клиенте вместо старого, при этом указать клиенту путь в старую папку куда и должно происходить скачивание новых серий. Ваш клиент при этом должен произвести хеширование (проверку) старой папки и будет докачивать только те серии, которых у вас ещё нет. Старые серии при этом не удаляются, а продолжают раздаваться! Eсли вы уже удалили старые серии, то предотвратить повторную закачку старых серий можно, отжав галочку в соответствующих местах при запуске нового торрента.


Последний раз редактировалось: Winchester (2018-03-03 23:48), всего редактировалось 2 раз(а)

[Цитировать]

как сериал?

[Цитировать]



Показать сообщения:    

Текущее время: 19-Дек 04:51

Часовой пояс: UTC + 6


Вы не можете начинать темы
Вы не можете отвечать на сообщения
Вы не можете редактировать свои сообщения
Вы не можете удалять свои сообщения
Вы не можете голосовать в опросах
Вы не можете прикреплять файлы к сообщениям
Вы не можете скачивать файлы

!ВНИМАНИЕ!
Сайт не предоставляет электронные версии произведений, а занимается лишь коллекционированием и каталогизацией ссылок, присылаемых и публикуемых на форуме нашими читателями. Если вы являетесь правообладателем какого-либо представленного материала и не желаете, чтобы ссылка на него находилась в нашем каталоге, свяжитесь с нами, и мы незамедлительно удалим ее. Файлы для обмена на трекере предоставлены пользователями сайта, и администрация не несет ответственности за их содержание. Просьба не заливать файлы, защищенные авторскими правами, а также файлы нелегального содержания!