[ Сегодня идет свободное скачивание без начисления Download ]


Статистика раздачи
Качаю: [ 3 ]
Скачал: [ 1 ]
 
   
 
 
 
 
По ту сторону смерти [S01х01 из 16] Информация о фильме
Название: По ту сторону смерти
Год выпуска: 2017
Страна: Россия
Жанр: Детектив, триллер-Перевод: Не требуется [Русский]
Продолжительность: 00:48:54-Режиссер: Сергей Чекалов
В ролях: Сергей Гармаш (Глеб Точилин, следователь СК), Светлана Ходченкова (Юлия Дёмина, сотрудница института мозга), Виктор Добронравов (Алексей Быстров), Илья Любимов (Лукас), Виктория Исакова (Анна Покровская), Борис Невзоров, Александр Рапопорт, Марта Тимофеева (Настя), Артем Лысков (Валиулин), Джан Бадмаев (доктор Накамура в молодости), Александр Цереня (Лосев), Сергей Комаров (Руслан Идигов)-Описание:
Сюжет начинается со странной истории, в которой пытается разобраться следователь СК Глеб Точилин перед выходом на пенсию. Он должен найти исчезнувшее из морга тело Алексея Быстрова, который попал под поезд, а на следующий день... встал и ушёл на своих двоих. В поисках «живого трупа» Точилину помогает сотрудница Института мозга Юлия Дёмина, которую пропавший спас из-под колёс электрички.
-Качество: HDTV 1080p
Формат: MKV
Видео: AVC, 1920x1080 (16:9), 7050 kbps, 25 fps, 0,136 bpp
Аудио: AC3 / 2.0 / 48 kHz / 192 kbps /--

ОтчетМедиаИнфо

General
Unique ID : 217218780143437668561719877954679900786 (0xA36AD0B88F2E3723873109AAB2F88A72)
Complete name : E:запись с твPo tu storonu smerti.2018i HDTV 1080p.R.G.GeneralfilmPo tu storonu smerti.s01.e16.2018.HDTV 1080p.by.White Smoke.R.G.Generalfilm.mkv
Format : Matroska
Format version : Version 4 / Version 2
File size : 2.45 GiB
Duration : 48 min
Overall bit rate mode : Constant
Overall bit rate : 7 163 kb/s
Movie name : Po tu storonu smerti.s01.e16.2018.HDTV 1080p.by.White Smoke.R.G.Generalfilm.mkv
Encoded date : UTC 2018-03-11 23:12:55
Writing application : mkvmerge v6.8.0 ('Theme for Great Cities') 64bit built on Mar 2 2014 21:34:26
Writing library : libebml v1.3.0 + libmatroska v1.4.1
Video
ID : 1
Format : AVC
Format/Info : Advanced Video Codec
Format profile : High@L4.1
Format settings, CABAC : Yes
Format settings, ReFrames : 3 frames
Format settings, GOP : M=3, N=33
Codec ID : V_MPEG4/ISO/AVC
Duration : 48 min
Bit rate mode : Constant
Bit rate : 7 051 kb/s
Width : 1 920 pixels
Height : 1 080 pixels
Display aspect ratio : 16:9
Frame rate mode : Constant
Frame rate : 25.000 FPS
Standard : PAL
Color space : YUV
Chroma subsampling : 4:2:0
Bit depth : 8 bits
Scan type : Progressive
Bits/(Pixel*Frame) : 0.136
Stream size : 2.33 GiB (95%)
Default : No
Forced : No
Color range : Limited
Color primaries : BT.709
Transfer characteristics : BT.709
Matrix coefficients : BT.709
Audio
ID : 2
Format : AC-3
Format/Info : Audio Coding 3
Mode extension : CM (complete main)
Format settings, Endianness : Big
Codec ID : A_AC3
Duration : 48 min
Bit rate mode : Constant
Bit rate : 192 kb/s
Channel(s) : 2 channels
Channel positions : Front: L R
Sampling rate : 48.0 kHz
Frame rate : 31.250 FPS (1536 spf)
Compression mode : Lossy
Delay relative to video : -200 ms
Stream size : 67.2 MiB (3%)
Default : No
Forced : No

Скриншоты

[Цитировать]



Показать сообщения:    

Текущее время: 25-Сен 16:37

Часовой пояс: UTC + 6


Вы не можете начинать темы
Вы не можете отвечать на сообщения
Вы не можете редактировать свои сообщения
Вы не можете удалять свои сообщения
Вы не можете голосовать в опросах
Вы не можете прикреплять файлы к сообщениям
Вы не можете скачивать файлы

!ВНИМАНИЕ!
Сайт не предоставляет электронные версии произведений, а занимается лишь коллекционированием и каталогизацией ссылок, присылаемых и публикуемых на форуме нашими читателями. Если вы являетесь правообладателем какого-либо представленного материала и не желаете, чтобы ссылка на него находилась в нашем каталоге, свяжитесь с нами, и мы незамедлительно удалим ее. Файлы для обмена на трекере предоставлены пользователями сайта, и администрация не несет ответственности за их содержание. Просьба не заливать файлы, защищенные авторскими правами, а также файлы нелегального содержания!