[ Сегодня идет свободное скачивание без начисления Download ]


Статистика раздачи
Нет
 
   
 
Top  
 
 
- Евровидение-2013. Финал / Eurovision-2013. Final (2013.05.18) HDTV [H.264/1080i] - Режиссер / Телекомпания: Первый канал HD
Русское название: Евровидение-2013. Финал
Оригинальное название: Eurovision-2013. Final
Год выпуска: 2013
Жанр: Телепередача
Выпущено: Швеция, Мальмо
Описание:
Первый канал представляет трансляции из шведского города Мальмо, где в этом году проводится международный конкурс песни "Евровидение-2013". Россию на конкурсе представляет победительница проекта "Голос" Дина Гарипова с песней What If, написанной специально для "Евровидения" российско-шведской командой авторов. Дина выступает в 1-м Полуфинале 14 мая на арене Мальме под 6-м номером. Также в этом полуфинале выступят представители Австрии, Эстонии, Словении, Хорватии, Дании, Украины, Голландии, Черногории, Литвы, Беларуси, Молдовы, Ирландии, Кипра, Бельгии и Сербии. 2-й Полуфинал пройдет 16 мая. В нем участвуют: Латвия, Сан-Марино, Македония, Азербайджан, Финляндия, Мальта, Болгария, Исландия, Греция, Израиль, Армения, Венгрия, Норвегия, Албания, Грузия, Швейцария и Румыния. По 10 лучших полуфиналистов из каждого Полуфинала выходят в Финал конкурса. Страны "Большой пятерки" (Германия, Великобритания, Франция, Италия и Испания), а также Швеция, принимающая конкурс в этом году, выходят в Финал без предварительного отбора. Финал пройдет 18 мая и выявит победителя.
Ведущий: Яна Чурикова, Юрий Аксюта
Перевод: Двуголосый закадровый
Продолжительность: ~ 03:16:47
Видеокодек: MPEG-TS (AVC)
Битрейт видео: ~9229 kb/s
Размер кадра: 1920 x 1080
Качество видео: HDTV 1080i
Аудиокодек: MP3, 2ch.
Битрейт аудио: 192 kb/s

Итоги конкурса. Не открывать!!!

Участники

1. Франция (Амандин Буржуа с песней "L’enfer et moi")
2. Литва (Андрюс Появис, "Something")
3. Молдова (Алена Мун, "O mie")
4. Финляндия (Криста Сиегфридс "Marry Me")
5. Испания ("El Sue?o de Morfeo", "Contigo hasta el final")
6. Бельгия (Роберто Беллароза, "Love Kills")
7. Эстония (Биргит Ыйгемеэль, "Et uus saaks alguse")
8. Беларусь (Алена Ланская, "Solayoh")
9. Мальта (Джанлука Беззина, "Tomorrow")
10. Россия (Дина Гарипова, "What If")
11. Германия ("Cascada", "Glorious")
12. Армения ("Дорианс" "Lonely planet")
13. Нидерланды (Анук, "Birds")
14. Румыния (Чезар, "It's My Life")
15. Великобритания (Бонни Тайлер, "Believe in Me")
16. Швеция (Робин Шернберг, "You")
17. Венгрия (ByeAlex, "Kedvesem")
18. Дания (Эммили де Форест, "Only Teardrops")
19. Исландия (Эйтоур Инги Гюннлейгссон "?g ? L?f")
20. Азербайджан (Фарид Мамедов, "Hold me")
21. Греция ("Koza Mostra" и Агафонас Иаковидис, "Alcohol Is Free")
22. Украина (Злата Огневич, "Gravity")
23. Италия (Марко Менгони, "L'essenziale")
24. Норвегия (Маргарет Бергер, "I Feed You My Love")
25. Грузия (Софо Геловани и Нодико Татишвили "Waterfall")
26. Ирландия (Райан Долан, "Only Love Survives")

MediaInfo

Формат : MPEG-TS
Размер файла : 13,6 Гбайт
Продолжительность : 3 ч. 16 м.
Общий поток : 9913 Кбит/сек
Видео
Идентификатор : 305 (0x131)
Идентификатор меню : 1 (0x1)
Формат : AVC
Формат/Информация : Advanced Video Codec
Профиль формата : High@L4.0
Параметр CABAC формата : Да
Параметр ReFrames формата : 3 кадра
Идентификатор кодека : 27
Продолжительность : 3 ч. 16 м.
Битрейт : 9229 Кбит/сек
Ширина : 1920 пикселей
Высота : 1080 пикселей
Соотношение сторон : 16:9
Частота кадров : 25,000 кадров/сек
Стандарт вещания : Component
Цветовое пространство : YUV
Субдискретизация насыщенности : 4:2:0
Битовая глубина : 8 бит
Тип развёртки : Чересстрочная
Порядок развёртки : Верхнее поле первое
Бит/(Пиксели*Кадры) : 0.178
Размер потока : 12,7 Гбайт (93%)
Основные цвета : BT.709-5, BT.1361, IEC 61966-2-4, SMPTE RP177
Характеристики трансфера : BT.709-5, BT.1361
Коэффициенты матрицы : BT.709-5, BT.1361, IEC 61966-2-4 709, SMPTE RP177
Аудио
Идентификатор : 405 (0x195)
Идентификатор меню : 1 (0x1)
Формат : MPEG Audio
Версия формата : Version 1
Профиль формата : Layer 2
Идентификатор кодека : 3
Продолжительность : 3 ч. 16 м.
Вид битрейта : Постоянный
Битрейт : 192 Кбит/сек
Каналы : 2 канала
Частота : 48,0 КГц
Метод сжатия : С потерями
Размер потока : 270 Мбайт (2%)
Язык : Russian
Текст
Идентификатор : 505 (0x1F9)-888
Идентификатор меню : 1 (0x1)
Формат : Teletext Subtitle
Язык : Russian
Скриншоты: Время раздачи: 24/7. До первых 5 скачавших.

[Цитировать]



Показать сообщения:    

Текущее время: 28-Июл 06:36

Часовой пояс: UTC + 6


Вы не можете начинать темы
Вы не можете отвечать на сообщения
Вы не можете редактировать свои сообщения
Вы не можете удалять свои сообщения
Вы не можете голосовать в опросах
Вы не можете прикреплять файлы к сообщениям
Вы не можете скачивать файлы

!ВНИМАНИЕ!
Сайт не предоставляет электронные версии произведений, а занимается лишь коллекционированием и каталогизацией ссылок, присылаемых и публикуемых на форуме нашими читателями. Если вы являетесь правообладателем какого-либо представленного материала и не желаете, чтобы ссылка на него находилась в нашем каталоге, свяжитесь с нами, и мы незамедлительно удалим ее. Файлы для обмена на трекере предоставлены пользователями сайта, и администрация не несет ответственности за их содержание. Просьба не заливать файлы, защищенные авторскими правами, а также файлы нелегального содержания!