[ Сегодня идет свободное скачивание без начисления Download ]


Статистика раздачи
Скачал: [ 2 ]
 
   
 
 
 
 
Особь 2 / Species II (1998) HDRip-AVC Информация о фильме:
Название: Особь 2
Оригинальное название: Species II
Год выхода: 1998
Жанр: ужасы, фантастика
Режиссер: Питер Медак
В ролях: Майкл Мэдсен, Наташа Хенстридж, Марг Хельгенбергер, Майкелти Уильямсон, Джордж Дзундза, Джеймс Кромуэлл, Джастин Лазард, Мириам Сир, Сара Уайнтер, Бакстер Харрис
О фильме :
Исследователи космоса возвращаются на Землю, после длительной экспедиции на Марс. Ученым удалось собрать множество интереснейших образцов, которые они везут на Землю для изучения, но вместе с этими образцами на корабль проникло Нечто. Один из ученых превращается в ужасную тварь, которая легко убивает всех, кто встает на ее пути. Главная задача неземного существа – наплодить потомство, для этого твари необходимо встретиться с другой, подобной ей тварью, которую изучают на Земле в секретной лаборатории. Если эта встреча состоится – инопланетные твари заполонят Землю.

Страна: США
Студия: Metro Goldwyn Mayer
Продолжительность: 01:33:03
Перевод 1: Профессиональный (многоголосый, закадровый) - НТВ
Перевод 2: Профессиональный (многоголосый, закадровый) - Варус Видео
Файл
Формат: MKV
Качество: HDRip-AVC
Видео: MPEG-4 AVC, 752x408, ~ 966 Кбит/с
Аудио 1: AAC-HE, 2 ch, ~ 76 Кбит/с | НТВ
Аудио 2: AAC-HE, 2 ch, ~ 76 Кбит/с | Варус Видео
Субтитры: Русские, английские

MI

Общее
Уникальный идентификатор : 203867296396829775453207822679775378453 (0x995F69BFB0634E3085483AADB39BFC15)
Полное имя : D:MOVIESSpecies II.1998.ExKinoRay.mkv
Формат : Matroska
Версия формата : Version 4 / Version 2
Размер файла : 745 Мбайт
Продолжительность : 1 ч. 33 м.
Общий поток : 1120 Кбит/сек
Дата кодирования : UTC 2018-03-18 12:53:03
Программа кодирования : mkvmerge v15.0.0 ('Duel with the Devil') 64-bit
Библиотека кодирования : libebml v1.3.5 + libmatroska v1.4.5
Видео
Идентификатор : 1
Формат : AVC
Формат/Информация : Advanced Video Codec
Профиль формата : High@L4.1
Параметр CABAC формата : Да
Параметр RefFrames формата : 10 кадров
Идентификатор кодека : V_MPEG4/ISO/AVC
Продолжительность : 1 ч. 33 м.
Битрейт : 966 Кбит/сек
Ширина : 752 пикселя
Высота : 408 пикселей
Соотношение сторон : 1,85:1
Режим частоты кадров : Постоянный
Частота кадров : 23,976 (24000/1001) кадра/сек
Цветовое пространство : YUV
Субдискретизация насыщенности : 4:2:0
Битовая глубина : 8 бит
Тип развёртки : Прогрессивная
Бит/(Пиксели*Кадры) : 0.131
Размер потока : 643 Мбайт (86%)
Библиотека кодирования : x264 core 155 r2901 7d0ff22
Настройки программы : cabac=1 / ref=10 / deblock=1:-3:-3 / analyse=0x3:0x133 / me=umh / subme=11 / psy=1 / psy_rd=1.00:0.12 / mixed_ref=1 / me_range=32 / chroma_me=1 / trellis=2 / 8x8dct=1 / cqm=0 / deadzone=21,11 / fast_pskip=0 / chroma_qp_offset=-3 / threads=6 / lookahead_threads=1 / sliced_threads=0 / nr=0 / decimate=0 / interlaced=0 / bluray_compat=0 / constrained_intra=0 / bframes=10 / b_pyramid=2 / b_adapt=2 / b_bias=0 / direct=3 / weightb=1 / open_gop=0 / weightp=2 / keyint=240 / keyint_min=23 / scenecut=40 / intra_refresh=0 / rc_lookahead=40 / rc=2pass / mbtree=1 / bitrate=966 / ratetol=1.0 / qcomp=0.60 / qpmin=0 / qpmax=69 / qpstep=4 / cplxblur=20.0 / qblur=0.5 / vbv_maxrate=50000 / vbv_bufsize=62500 / nal_hrd=none / filler=0 / ip_ratio=1.40 / aq=3:1.00
Default : Да
Forced : Нет
Аудио #1
Идентификатор : 2
Формат : AAC
Формат/Информация : Advanced Audio Codec
Профиль формата : HE-AAC / LC
Идентификатор кодека : A_AAC
Продолжительность : 1 ч. 33 м.
Битрейт : 76,0 Кбит/сек
Каналы : 2 канала
Расположение каналов : Front: L R
Частота : 48,0 КГц / 24,0 КГц
Частота кадров : 23,438 кадра/сек (1024 SPF)
Метод сжатия : С потерями
Задержка видео : 31 мс.
Размер потока : 50,6 Мбайт (7%)
Язык : Russian
Default : Да
Forced : Нет
Аудио #2
Идентификатор : 3
Формат : AAC
Формат/Информация : Advanced Audio Codec
Профиль формата : HE-AAC / LC
Идентификатор кодека : A_AAC
Продолжительность : 1 ч. 33 м.
Битрейт : 76,0 Кбит/сек
Каналы : 2 канала
Расположение каналов : Front: L R
Частота : 48,0 КГц / 24,0 КГц
Частота кадров : 23,438 кадра/сек (1024 SPF)
Метод сжатия : С потерями
Задержка видео : 31 мс.
Размер потока : 50,6 Мбайт (7%)
Язык : Russian
Default : Нет
Forced : Нет
Текст #1
Идентификатор : 4
Формат : UTF-8
Идентификатор кодека : S_TEXT/UTF8
Идентификатор кодека/Информация : UTF-8 Plain Text
Продолжительность : 1 ч. 26 м.
Битрейт : 79 бит/сек
ElementCount : 836
Размер потока : 50,4 Кбайт (0%)
Язык : Russian
Default : Да
Forced : Нет
Текст #2
Идентификатор : 5
Формат : UTF-8
Идентификатор кодека : S_TEXT/UTF8
Идентификатор кодека/Информация : UTF-8 Plain Text
Продолжительность : 1 ч. 25 м.
Битрейт : 50 бит/сек
ElementCount : 933
Размер потока : 32,0 Кбайт (0%)
Язык : English
Default : Нет
Forced : Нет
Меню
00:00:00.000 : en:00:00:00.000
00:10:15.740 : en:00:10:15.740
00:20:20.970 : en:00:20:20.970
00:27:59.553 : en:00:27:59.553
00:33:52.447 : en:00:33:52.447
00:41:16.057 : en:00:41:16.057
00:49:01.897 : en:00:49:01.897
00:58:37.180 : en:00:58:37.180
01:05:50.113 : en:01:05:50.113
01:12:49.782 : en:01:12:49.782
01:20:02.673 : en:01:20:02.673
01:25:15.736 : en:01:25:15.736

Скриншоты


[Цитировать]



Показать сообщения:    

Текущее время: 12-Дек 15:18

Часовой пояс: UTC + 6


Вы не можете начинать темы
Вы не можете отвечать на сообщения
Вы не можете редактировать свои сообщения
Вы не можете удалять свои сообщения
Вы не можете голосовать в опросах
Вы не можете прикреплять файлы к сообщениям
Вы не можете скачивать файлы

!ВНИМАНИЕ!
Сайт не предоставляет электронные версии произведений, а занимается лишь коллекционированием и каталогизацией ссылок, присылаемых и публикуемых на форуме нашими читателями. Если вы являетесь правообладателем какого-либо представленного материала и не желаете, чтобы ссылка на него находилась в нашем каталоге, свяжитесь с нами, и мы незамедлительно удалим ее. Файлы для обмена на трекере предоставлены пользователями сайта, и администрация не несет ответственности за их содержание. Просьба не заливать файлы, защищенные авторскими правами, а также файлы нелегального содержания!