[ Сегодня идет свободное скачивание без начисления Download ]


Статистика раздачи
Буду качать: [ 1 ]
Качаю: [ 1 ]
Скачал: [ 27 ]
 
   
 
 
 
 
Все деньги мира
All the Money in the World

«Заплатят все, кроме него»- Информация
Производство: США / Imperative Entertainment, Scott Free Productions
Жанр: триллер, драма, криминал, детектив, биография
Режиссер: Ридли Скотт
Актеры: Мишель Уильямс, Кристофер Пламмер, Марк Уолберг, Ромен Дюрис, Тимоти Хаттон, Чарли Пламмер, Чарли Шотуэлл, Эндрю Бакан, Марко Леонарди, Джузеппе Бонифати, Николас Вапоридис, Андреа Пьедимонте
Описание:
Во всем мире не было человека богаче, чем Пол Гетти. Принадлежать к его роду - все равно что быть богом. Однако, когда в Риме неизвестные похищают его внука, нефтяной магнат, ко всеобщему шоку, наотрез отказывается платить выкуп. И тогда единственной надеждой для матери мальчика становится таинственный сотрудник службы безопасности самого Гетти...


Возраст: 18+ (зрителям, достигшим 18 лет. запрещено для детей)
Рейтинг MPAA: R (лицам до 17 лет обязательно присутствие взрослого)
Дата мировой премьеры: 18 декабря 2017
Дата российской премьеры: 22 февраля 2018, «Вольга»
Продолжительность: 02:12:41
Перевод: Дублированный (iTunes)
Файл
Качество видео: BDRip Сэмпл
Видео: AVC/H.264, 1920x800, 7488 Кbps, 23.976 fps
Аудио 1: AC3, 6 ch, 384 Kbps - Русский
Аудио 2: AC3, 6 ch, 448 Kbps - Английский
Субтитры: Русские, Английские

Mediainfo:

Полное имя : E:\All.the.Money.in.the.World.2017.BDRip.1080p.HDReactor.mkv
Формат : Matroska
Версия формата : Version 2
Размер файла : 7,71 Гбайт
Продолжительность : 2 ч. 12 м.
Общий поток : 8315 Кбит/сек
Название фильма : ~V ad~
Дата кодирования : UTC 2018-03-29 22:53:54
Программа кодирования : mkvmerge v6.5.0 ('Isn't she lovely') built on Oct 20 2013 12:50:05
Библиотека кодирования : libebml v1.3.0 + libmatroska v1.4.1
Обложка : Yes
Attachments : cover.jpg
Видео
Идентификатор : 1
Формат : AVC
Формат/Информация : Advanced Video Codec
Профиль формата : High@L4.1
Настройки формата : CABAC / 5 Ref Frames
Параметр CABAC формата : Да
Параметр RefFrames формата : 5 кадров
Идентификатор кодека : V_MPEG4/ISO/AVC
Продолжительность : 2 ч. 12 м.
Битрейт : 7488 Кбит/сек
Ширина : 1920 пикселей
Высота : 800 пикселей
Соотношение сторон : 2,40:1
Режим частоты кадров : Постоянный
Частота кадров : 23,976 (24000/1001) кадра/сек
Цветовое пространство : YUV
Субдискретизация насыщенности : 4:2:0
Битовая глубина : 8 бит
Тип развёртки : Прогрессивная
Бит/(Пиксели*Кадры) : 0.203
Размер потока : 6,78 Гбайт (88%)
Заголовок : ~V~
Библиотека кодирования : x264 core 155 r2901 7d0ff22
Настройки программы : cabac=1 / ref=5 / deblock=1:-3:-3 / analyse=0x3:0x133 / me=umh / subme=11 / psy=1 / psy_rd=1.00:0.00 / mixed_ref=1 / me_range=32 / chroma_me=1 / trellis=2 / 8x8dct=1 / cqm=0 / deadzone=21,11 / fast_pskip=0 / chroma_qp_offset=-2 / threads=12 / lookahead_threads=1 / sliced_threads=0 / nr=0 / decimate=0 / interlaced=0 / bluray_compat=0 / constrained_intra=0 / bframes=10 / b_pyramid=2 / b_adapt=2 / b_bias=0 / direct=3 / weightb=1 / open_gop=0 / weightp=2 / keyint=240 / keyint_min=23 / scenecut=40 / intra_refresh=0 / rc=2pass / mbtree=0 / bitrate=7488 / ratetol=1.0 / qcomp=0.70 / qpmin=0 / qpmax=69 / qpstep=4 / cplxblur=20.0 / qblur=0.5 / ip_ratio=1.28 / pb_ratio=1.30 / aq=3:0.70
Язык : Английский
Default : Да
Forced : Нет
Аудио #1
Идентификатор : 2
Формат : AC-3
Формат/Информация : Audio Coding 3
Идентификатор кодека : A_AC3
Продолжительность : 2 ч. 12 м.
Вид битрейта : Постоянный
Битрейт : 384 Кбит/сек
Каналы : 6 каналов
Расположение каналов : Front: L C R, Side: L R, LFE
Частота : 48,0 КГц
Частота кадров : 31,250 кадров/сек (1536 SPF)
Битовая глубина : 16 бит
Метод сжатия : С потерями
Размер потока : 364 Мбайт (5%)
Заголовок : Dub
Язык : Русский
Service Kind : Complete Main
Default : Да
Forced : Нет
Аудио #2
Идентификатор : 3
Формат : AC-3
Формат/Информация : Audio Coding 3
Идентификатор кодека : A_AC3
Продолжительность : 2 ч. 12 м.
Вид битрейта : Постоянный
Битрейт : 448 Кбит/сек
Каналы : 6 каналов
Расположение каналов : Front: L C R, Side: L R, LFE
Частота : 48,0 КГц
Частота кадров : 31,250 кадров/сек (1536 SPF)
Битовая глубина : 16 бит
Метод сжатия : С потерями
Размер потока : 425 Мбайт (5%)
Язык : Английский
Service Kind : Complete Main
Default : Нет
Forced : Нет
Текст #1
Идентификатор : 4
Формат : UTF-8
Идентификатор кодека : S_TEXT/UTF8
Идентификатор кодека/Информация : UTF-8 Plain Text
Заголовок : Full
Язык : Русский
Default : Нет
Forced : Нет
Текст #2
Идентификатор : 5
Формат : UTF-8
Идентификатор кодека : S_TEXT/UTF8
Идентификатор кодека/Информация : UTF-8 Plain Text
Заголовок : Full
Язык : Английский
Default : Нет
Forced : Нет
Меню
00:00:00.000 : en:Chapter 1
00:10:55.113 : en:Chapter 2
00:19:10.358 : en:Chapter 3
00:30:35.500 : en:Chapter 4
00:39:27.907 : en:Chapter 5
00:48:36.664 : en:Chapter 6
00:55:26.156 : en:Chapter 7
01:05:59.164 : en:Chapter 8
01:15:27.606 : en:Chapter 9
01:24:42.369 : en:Chapter 10
01:28:20.587 : en:Chapter 11
01:34:55.064 : en:Chapter 12
01:42:14.170 : en:Chapter 13
01:48:11.485 : en:Chapter 14
01:56:07.169 : en:Chapter 15
02:03:08.381 : en:Chapter 16

Log x264:

x264 [info]: using SAR=1/1
x264 [info]: using cpu capabilities: MMX2 SSE2Fast SSSE3 SSE4.2 AVX
x264 [info]: profile High, level 4.1
x264 [info]: frame I:1317 Avg QP:16.02 size:179737
x264 [info]: frame P:39023 Avg QP:18.19 size: 79071
x264 [info]: frame B:150556 Avg QP:20.36 size: 27384
x264 [info]: consecutive B-frames: 1.3% 1.8% 4.5% 23.9% 18.2% 33.8% 8.3% 6.0% 1.1% 0.8% 0.2%
x264 [info]: mb I I16..4: 4.1% 80.9% 15.0%
x264 [info]: mb P I16..4: 0.5% 10.5% 1.0% P16..4: 30.5% 38.1% 13.2% 2.1% 0.1% skip: 3.9%
x264 [info]: mb B I16..4: 0.0% 0.7% 0.1% B16..8: 41.4% 20.2% 3.0% direct: 5.6% skip:29.0% L0:44.8% L1:43.9% BI:11.2%
x264 [info]: 8x8 transform intra:85.6% inter:52.6%
x264 [info]: direct mvs spatial:99.8% temporal:0.2%
x264 [info]: coded y,uvDC,uvAC intra: 93.6% 79.6% 52.3% inter: 33.6% 18.4% 5.6%
x264 [info]: i16 v,h,dc,p: 27% 17% 6% 50%
x264 [info]: i8 v,h,dc,ddl,ddr,vr,hd,vl,hu: 9% 7% 8% 11% 14% 13% 13% 13% 13%
x264 [info]: i4 v,h,dc,ddl,ddr,vr,hd,vl,hu: 11% 9% 5% 8% 15% 14% 14% 11% 13%
x264 [info]: i8c dc,h,v,p: 39% 25% 19% 17%
x264 [info]: Weighted P-Frames: Y:10.1% UV:7.4%
x264 [info]: ref P L0: 52.8% 7.2% 21.0% 10.8% 7.6% 0.6% 0.0%
x264 [info]: ref B L0: 79.5% 14.3% 4.8% 1.3%
x264 [info]: ref B L1: 95.2% 4.8%
x264 [info]: kb/s:7480.75

Скриншоты

Скриншоты:

Дополнительные скриншоты:


[Цитировать]

Топик был перенесен из форума Новинки кинопроката 2017 (HD Video) в форум Зарубежное кино (HD Video)
Viktor1952



Показать сообщения:    

Текущее время: 26-Сен 20:55

Часовой пояс: UTC + 6


Вы не можете начинать темы
Вы не можете отвечать на сообщения
Вы не можете редактировать свои сообщения
Вы не можете удалять свои сообщения
Вы не можете голосовать в опросах
Вы не можете прикреплять файлы к сообщениям
Вы не можете скачивать файлы

!ВНИМАНИЕ!
Сайт не предоставляет электронные версии произведений, а занимается лишь коллекционированием и каталогизацией ссылок, присылаемых и публикуемых на форуме нашими читателями. Если вы являетесь правообладателем какого-либо представленного материала и не желаете, чтобы ссылка на него находилась в нашем каталоге, свяжитесь с нами, и мы незамедлительно удалим ее. Файлы для обмена на трекере предоставлены пользователями сайта, и администрация не несет ответственности за их содержание. Просьба не заливать файлы, защищенные авторскими правами, а также файлы нелегального содержания!